<?xml version="1.0" standalone="no"?>
<!DOCTYPE svg PUBLIC "-//W3C//DTD SVG 1.1//EN" "http://www.w3.org/Graphics/SVG/1.1/DTD/svg11.dtd" >
<svg xmlns="http://www.w3.org/2000/svg">
<metadata>
This is a custom SVG webfont generated by Font Squirrel.
Copyright   : Copyright  1985 1987 1997 1998 2001 Adobe Systems Incorporated  All Rights Reserved Revised kerning Copyright 2010 International Typeface Corporation
Designer    : Herb Lubalin
Foundry     : ITC
Foundry URL : httpwwwitcfontscom
</metadata>
<defs>
<font id="LubalinforIBMDemi" horiz-adv-x="1392" >
<font-face units-per-em="2048" ascent="1473" descent="-575" />
<missing-glyph horiz-adv-x="589" />
<glyph unicode=" "  horiz-adv-x="589" />
<glyph unicode="&#x09;" horiz-adv-x="589" />
<glyph unicode="&#xa0;" horiz-adv-x="589" />
<glyph unicode="!" horiz-adv-x="708" d="M225 0v289h258v-289h-258zM225 438v1024h258v-1024h-258z" />
<glyph unicode="&#x22;" horiz-adv-x="860" d="M94 1462h258l-55 -588h-150zM492 1462h258l-56 -588h-149z" />
<glyph unicode="#" horiz-adv-x="1228" d="M76 489v154h272l31 209h-244v154h266l66 456h154l-64 -456h211l66 456h155l-65 -456h231v-154h-254l-29 -209h224v-154h-248l-72 -489h-155l69 489h-211l-69 -489h-156l70 489h-248zM504 643h209l30 209h-211z" />
<glyph unicode="$" horiz-adv-x="1081" d="M72 1065q0 156 104.5 272.5t257.5 137.5v215h213v-238q74 -12 121 -78v88h193v-401h-228q-4 82 -59.5 134t-136.5 52q-80 0 -136.5 -48t-56.5 -128q0 -86 53.5 -128t149.5 -66q223 -57 317 -125q176 -125 176 -338q0 -174 -109.5 -297t-283.5 -152v-211h-213v246l-16 2 q-80 27 -121 82v-84h-207v434h244v-11q0 -89 60 -154q65 -69 161 -68q88 0 147.5 54t59.5 142q0 92 -60.5 139.5t-164.5 77.5q-221 66 -301 123q-78 55 -121 142.5t-43 185.5z" />
<glyph unicode="%" horiz-adv-x="1802" d="M86 1135q0 147 106.5 252.5t253.5 105.5q152 0 259.5 -106.5t107.5 -256.5q0 -152 -105.5 -258t-256.5 -106q-154 0 -259.5 107.5t-105.5 261.5zM299 1133q0 -66 44 -110t108 -44q61 0 105 44t44 105q0 63 -44 107.5t-107 44.5q-61 0 -105.5 -43t-44.5 -104zM469 0 l659 1462h201l-657 -1462h-203zM989 346q0 147 106.5 253t254.5 106q152 0 259 -105.5t107 -255.5q0 -152 -106.5 -259.5t-255.5 -107.5q-154 0 -259.5 107.5t-105.5 261.5zM1202 344q0 -63 45 -108.5t109 -45.5q61 0 104 45.5t43 106.5t-44 106.5t-105.5 45.5t-106.5 -44.5 t-45 -105.5z" />
<glyph unicode="&#x26;" horiz-adv-x="1515" d="M94 395q0 137 79 232.5t220 183.5l-14 14q-74 78 -110 148.5t-36 165.5q0 156 110 259t267 103q150 0 258.5 -98t108.5 -246q0 -111 -64.5 -201t-169.5 -149l236 -232l143 312h303v-228h-145l-127 -258l250 -251l-172 -170l-232 229q-174 -238 -440 -238 q-186 0 -325.5 121t-139.5 303zM362 414q0 -86 63.5 -145.5t149.5 -59.5q88 0 144.5 45t103.5 129l-272 268q-189 -96 -189 -237zM477 1143q0 -90 103 -180l18 -17q150 94 150 195q0 59 -38 102t-97.5 43t-97.5 -41t-38 -102z" />
<glyph unicode="'" horiz-adv-x="450" d="M94 1462h258l-55 -588h-150z" />
<glyph unicode="(" horiz-adv-x="778" d="M94 596q0 289 168 532.5t438 333.5v-305q-150 -86 -236.5 -236.5t-86.5 -322.5t87 -325.5t236 -233.5v-311q-272 98 -439 337.5t-167 530.5z" />
<glyph unicode=")" horiz-adv-x="778" d="M94 39q150 80 237 233.5t87 325.5t-87 321.5t-237 237.5v305q270 -90 438 -333.5t168 -532.5q0 -291 -166.5 -531.5t-439.5 -336.5v311z" />
<glyph unicode="*" horiz-adv-x="778" d="M90 1104v131l193 -6l-113 160l113 73l106 -176l96 176l117 -69l-102 -158l188 10v-129l-186 4l104 -153l-110 -74l-101 174l-90 -174l-112 63l98 160z" />
<glyph unicode="+" d="M176 639v188h426v426h189v-426h426v-188h-426v-426h-189v426h-426z" />
<glyph unicode="," horiz-adv-x="579" d="M123 0v289h258v-328q0 -133 -49 -192q-33 -41 -71 -52.5t-99 -11.5h-39v139h27q39 0 58 21.5t22 44t3 63.5v27h-110z" />
<glyph unicode="-" horiz-adv-x="630" d="M53 414v248h525v-248h-525z" />
<glyph unicode="." horiz-adv-x="579" d="M123 0v289h258v-289h-258z" />
<glyph unicode="/" horiz-adv-x="1228" d="M94 -399l916 1861h182l-918 -1861h-180z" />
<glyph unicode="0" horiz-adv-x="1243" d="M92 532v410q0 129 27.5 218t107.5 171q164 170 391 170q213 0 373 -149q90 -84 124 -179.5t34 -230.5v-410q0 -127 -28.5 -217t-108.5 -172q-168 -172 -394 -172q-209 0 -370 152q-90 84 -123 178t-33 231zM367 528q0 -141 47 -209q68 -98 207 -98q147 0 215 113 q39 66 38 194v414q0 141 -49 209q-68 100 -204 100q-147 0 -215 -114q-39 -61 -39 -195v-414z" />
<glyph unicode="1" horiz-adv-x="718" d="M39 1229v233h485v-1229h172v-233h-614v233h172v996h-215z" />
<glyph unicode="2" horiz-adv-x="1099" d="M51 985q-2 221 140.5 368.5t361.5 147.5q199 0 337 -139t138 -340q0 -100 -44 -191.5t-91 -141.5t-143 -138l-347 -318h375v156h240v-389h-961v233l527 510l25 25l29 28l26 26q18 19 25 29.5t21.5 29t20.5 32.5l14 33q8 18 11.5 36.5t3.5 37.5q0 90 -65.5 150.5 t-155.5 60.5q-100 0 -164 -72q-60 -67 -60 -162v-12h-264z" />
<glyph unicode="3" horiz-adv-x="1130" d="M49 422h277q14 -90 77.5 -148.5t153.5 -58.5q96 0 166 68.5t70 165.5q0 111 -74 177t-184 66h-56l-12 -2v213h57q100 0 164 46t64 143q0 80 -52.5 131t-132.5 51q-74 0 -125 -47t-53 -123h-252q2 174 131 285.5t305 111.5q174 0 300 -106.5t126 -276.5q0 -92 -45 -176 t-125 -125q113 -41 181.5 -146.5t68.5 -230.5q0 -190 -151 -331q-143 -137 -355 -138q-209 0 -361.5 123t-162.5 328z" />
<glyph unicode="4" horiz-adv-x="1286" d="M66 389v213l630 860h314v-860h219v-213h-219v-156h170v-233h-611v233h170v156h-673zM362 602h377v531z" />
<glyph unicode="5" horiz-adv-x="1183" d="M33 391h286q31 -78 95.5 -123t150.5 -45q115 0 195 79t80 193.5t-81 191.5t-196 77q-164 0 -235 -143l-230 59l131 782h779v-233h-564l-57 -309q111 78 256 77q205 0 342 -147.5t137 -353.5q0 -229 -163.5 -377t-395.5 -148q-199 0 -344 113.5t-186 306.5z" />
<glyph unicode="6" horiz-adv-x="1187" d="M53 524q0 168 129 361l393 577h306l-340 -485q57 33 129 33q197 0 330 -149.5t133 -348.5q0 -227 -157 -384t-384 -157q-100 0 -202.5 43t-176.5 113q-160 159 -160 397zM322 510q0 -113 78.5 -193.5t193.5 -80.5q111 0 192.5 77.5t81.5 188.5q0 115 -78.5 195.5 t-193.5 80.5q-113 0 -193.5 -77.5t-80.5 -190.5z" />
<glyph unicode="7" horiz-adv-x="1019" d="M49 993v469h971v-235l-545 -1227h-301l565 1229h-426v-236h-264z" />
<glyph unicode="8" horiz-adv-x="1140" d="M59 426q0 121 71 225.5t183 149.5q-84 37 -133 117.5t-49 175.5q0 182 131 294.5t313 112.5q166 0 290 -110.5t124 -274.5q0 -199 -166 -301q115 -37 185.5 -143.5t70.5 -229.5q0 -205 -153.5 -338t-360.5 -133t-356.5 125t-149.5 330zM328 442q0 -98 70.5 -165.5 t168.5 -67.5q94 0 161 69.5t67 163.5q0 96 -70 165t-166 69t-163.5 -69t-67.5 -165zM375 1085q0 -80 53 -134t133 -54q76 0 130 54.5t54 130t-54 132t-128 56.5q-78 0 -133 -54.5t-55 -130.5z" />
<glyph unicode="9" horiz-adv-x="1200" d="M53 965q0 217 164 376.5t383 159.5q215 0 377 -149q168 -160 168 -402q0 -104 -29 -184t-92 -176l-391 -590h-338l364 485q-70 -35 -129 -34q-205 0 -341 153.5t-136 360.5zM324 965q0 -117 79.5 -198t196.5 -81t196 81q78 81 78 198q0 111 -81.5 189.5t-192.5 78.5 q-113 0 -194.5 -78.5t-81.5 -189.5z" />
<glyph unicode=":" horiz-adv-x="655" d="M199 0v289h258v-289h-258zM199 764v289h258v-289h-258z" />
<glyph unicode=";" horiz-adv-x="655" d="M199 0v289h258v-328q0 -133 -49 -192q-33 -41 -71 -52.5t-99 -11.5h-39v139h26q39 0 58.5 21.5t22.5 44t3 63.5v27h-110zM199 764v289h258v-289h-258z" />
<glyph unicode="&#x3c;" d="M133 643v180l1106 510v-188l-922 -414l922 -407v-187z" />
<glyph unicode="=" d="M176 477v191h1041v-191h-1041zM176 797v190h1041v-190h-1041z" />
<glyph unicode="&#x3e;" d="M133 137v187l922 407l-922 414v188l1106 -510v-180z" />
<glyph unicode="?" horiz-adv-x="1146" d="M94 999v12q0 201 139 344q143 146 353 146q195 0 337 -142t142 -337q0 -94 -32 -165t-80 -117t-97 -88t-90 -103.5t-53 -138.5h-258q0 119 50 203.5t154 181.5l53.5 49t39 44t36 61.5t9.5 66.5q0 88 -63.5 153.5t-149.5 65.5q-98 0 -161 -67.5t-65 -168.5h-264zM455 0 v289h258v-289h-258z" />
<glyph unicode="@" horiz-adv-x="1710" d="M98 721q0 319 235.5 549.5t557.5 230.5q279 0 477.5 -174t198.5 -448q0 -211 -107 -359q-59 -82 -150 -137t-186 -55q-127 0 -145 129q-94 -121 -236 -121q-131 0 -207.5 96t-76.5 232q0 178 134 332.5t310 154.5q66 0 121 -35t80 -92l22 63h148l-152 -491 q-18 -59 -18 -90q0 -61 61 -62q47 0 101.5 36t87.5 79q98 121 98 301q0 240 -161 380t-404 140q-272 0 -461 -186q-197 -193 -197 -463q0 -283 192.5 -462t477.5 -179q319 0 537 217l43 -92q-221 -244 -574 -244q-152 0 -302 51.5t-259 147.5q-113 100 -179.5 248.5 t-66.5 302.5zM621 657q0 -76 38.5 -128t110.5 -52q152 0 225 203q41 111 41 192q0 63 -34.5 102.5t-98.5 39.5q-119 0 -200.5 -117t-81.5 -240z" />
<glyph unicode="A" horiz-adv-x="1642" d="M33 0v233h155l426 996h-161v233h489l512 -1229h156v-233h-617v205h162l-86 219h-514l-84 -219h158v-205h-596zM627 639h372l-184 502h-2z" />
<glyph unicode="B" horiz-adv-x="1265" d="M63 0v233h158v996h-158v233h650q201 0 303 -76q137 -104 137 -290q0 -102 -50 -185.5t-140 -126.5q121 -49 187.5 -147t66.5 -229q0 -190 -138 -310q-113 -98 -336 -98h-680zM500 244h153q147 0 203 37q82 53 82 159.5t-80 165.5q-59 43 -203 43h-155v-405zM502 1229 v-350h141h23h22h21q16 0 22 1t19.5 3t21.5 5l20 7q11 4 20 9l19 11q66 47 66 140q0 96 -76 145q-45 29 -176 29h-143z" />
<glyph unicode="C" horiz-adv-x="1464" d="M-23 743q0 309 219.5 533.5t528.5 224.5q279 0 453 -180v147h229v-467h-266q-59 102 -171 163t-233 61q-207 0 -343 -138.5t-136 -345.5q0 -197 139.5 -339t335.5 -142q127 0 235.5 58.5t176.5 162.5h301q-72 -223 -273.5 -366.5t-437.5 -143.5q-147 0 -289.5 60.5 t-246.5 165.5q-222 224 -222 546z" />
<glyph unicode="D" horiz-adv-x="1452" d="M63 0v233h160v996h-160v233h695q162 0 282.5 -43t227.5 -149q207 -209 207 -543q0 -299 -189 -510q-193 -217 -532 -217h-691zM502 252h219q119 0 204 26.5t152 102.5q119 137 119 346q0 236 -127 371q-70 72 -148.5 94t-195.5 22h-223v-962z" />
<glyph unicode="E" horiz-adv-x="1224" d="M63 0v233h160v996h-160v233h1084v-440h-279v190h-366v-364h426v-217h-426v-387h366v198h279v-442h-1084z" />
<glyph unicode="F" horiz-adv-x="1224" d="M63 0v233h160v996h-160v233h1092v-440h-278v190h-375v-374h424v-215h-424v-390h160v-233h-599z" />
<glyph unicode="G" horiz-adv-x="1560" d="M-23 735q0 309 207 529q106 111 252 174t297 63q258 0 461 -174v135h229v-430h-303q-72 94 -166 142q-94 49 -215 49q-203 0 -342 -140.5t-139 -343t139.5 -346t339.5 -143.5q147 0 262 75.5t168 211.5h-540v235h850v-772h-232v225q-82 -123 -217 -188.5t-291 -65.5 q-315 0 -537.5 223.5t-222.5 540.5z" />
<glyph unicode="H" horiz-adv-x="1536" d="M49 0v233h160v996h-160v233h596v-233h-158v-352h564v352h-158v233h594v-233h-158v-996h158v-233h-594v233h158v365h-564v-365h158v-233h-596z" />
<glyph unicode="I" horiz-adv-x="733" d="M63 0v233h160v996h-160v233h596v-233h-157v-996h157v-233h-596z" />
<glyph unicode="J" horiz-adv-x="1105" d="M20 412h291q2 -74 45 -128.5t115 -54.5q90 0 137 80q29 51 29 185v735h-160v233h596v-233h-158v-770q0 -115 -18 -190.5t-82 -149.5q-59 -70 -152.5 -109t-189.5 -39q-201 0 -331 122t-122 319z" />
<glyph unicode="K" horiz-adv-x="1495" d="M63 0v233h160v996h-160v233h596v-233h-157v-428l452 428h-131v233h602v-233h-125l-520 -479l547 -517h129v-233h-622v233h143l-475 453v-453h157v-233h-596z" />
<glyph unicode="L" horiz-adv-x="1183" d="M63 0v233h160v996h-160v233h596v-233h-157v-979h350v192h278v-442h-1067z" />
<glyph unicode="M" horiz-adv-x="2002" d="M55 0v233h160v996h-160v233h549l397 -1032l398 1032h549v-233h-160v-996h160v-233h-596v233h157v850l-403 -1083h-197l-415 1083v-850h170v-233h-609z" />
<glyph unicode="N" horiz-adv-x="1630" d="M49 0v233h158v996h-158v233h410l696 -979v746h-160v233h596v-233h-157v-1229h-260l-689 963v-730h160v-233h-596z" />
<glyph unicode="O" horiz-adv-x="1488" d="M-23 731q0 322 225.5 545t547.5 223q313 0 537 -222t224 -534q0 -322 -224 -548t-544 -226q-317 0 -541.5 223.5t-224.5 538.5zM264 739q0 -205 139.5 -348t339.5 -143q203 0 342.5 144.5t139.5 348.5q0 197 -140.5 338.5t-336.5 141.5q-201 0 -342.5 -140.5 t-141.5 -341.5z" />
<glyph unicode="P" horiz-adv-x="1265" d="M66 0v233h157v996h-157v233h581q258 0 389 -96q180 -133 181 -381q0 -207 -142 -344q-133 -135 -373 -135h-200v-273h160v-233h-596zM502 758h166q131 0 188 49q80 68 80 178q0 115 -92 178q-61 45 -189 45h-153v-450z" />
<glyph unicode="Q" horiz-adv-x="1753" d="M-23 743q0 311 223.5 534.5t534.5 223.5q319 0 544.5 -222t225.5 -540q0 -281 -174 -477q84 -59 168 -65v135h205v-371l-86 -6q-262 0 -451 147q-201 -131 -428 -131q-322 0 -542 225t-220 547zM264 782l6 -75q119 49 256 49q309 0 590 -305q102 121 103 278 q0 205 -139.5 349.5t-344.5 144.5q-207 0 -344 -148q-127 -133 -127 -293zM326 485q63 -113 175.5 -174t243.5 -61q115 0 203 55q-217 225 -438 225q-102 0 -184 -45z" />
<glyph unicode="R" horiz-adv-x="1347" d="M63 0v233h158v996h-158v233h654q125 0 214 -22.5t169 -89.5q174 -150 174 -385q0 -166 -101.5 -296t-261.5 -145l228 -291h166v-233h-342l-463 657v-424h125v-233h-562zM500 684h151q164 0 244 59q100 78 100 211t-96 207q-29 25 -66.5 36t-63.5 13t-77 2h-192v-528z" />
<glyph unicode="S" horiz-adv-x="1083" d="M70 1071q0 178 131 300t311 122q174 0 260 -113v82h213v-393h-250q-2 82 -55 136.5t-135 54.5q-84 0 -141.5 -49.5t-57.5 -133.5q0 -51 18.5 -87t63.5 -59.5t69.5 -32.5t88.5 -28q215 -59 313 -133q145 -117 145 -307q0 -199 -131 -329t-331 -130q-180 0 -281 125v-96 h-221v434h254q0 -94 59.5 -158.5t157.5 -64.5q92 0 153.5 54t61.5 147q0 41 -17.5 74.5t-37 53t-61.5 39t-63.5 26.5l-70.5 22l-104 31q-37 11 -88.5 36t-94.5 58q-159 118 -159 319z" />
<glyph unicode="T" horiz-adv-x="1277" d="M63 1001v461h1151v-461h-221v213h-215v-981h160v-233h-598v233h160v981h-215v-213h-222z" />
<glyph unicode="U" horiz-adv-x="1435" d="M39 1229v233h569v-233h-133v-688q0 -139 43 -205q68 -102 201 -103q119 0 188 89q53 70 54 219v688h-134v233h570v-233h-158v-725q0 -125 -28.5 -215t-104.5 -170q-141 -147 -387 -148q-240 0 -377 135q-84 82 -114.5 178.5t-30.5 227.5v717h-158z" />
<glyph unicode="V" horiz-adv-x="1550" d="M33 1229v233h592v-233h-140l289 -844l309 844h-141v233h576v-233h-156l-447 -1229h-305l-420 1229h-157z" />
<glyph unicode="W" horiz-adv-x="2138" d="M45 1229v233h594v-233h-160l207 -768l264 1001h236l280 -993l197 760h-164v233h594v-233h-162l-325 -1229h-265l-270 965l-270 -965h-260l-351 1229h-145z" />
<glyph unicode="X" horiz-adv-x="1552" d="M57 0v233h144l407 508l-385 488h-149v233h602v-215h-135l235 -311l236 311h-135v215h604v-233h-148l-393 -488l406 -508h149v-233h-600v215h143l-262 334l-264 -334h145v-215h-600z" />
<glyph unicode="Y" horiz-adv-x="1409" d="M33 1229v233h565v-233h-135l246 -484l243 484h-139v233h563v-233h-145l-385 -719v-277h160v-233h-596v233h157v277l-387 719h-147z" />
<glyph unicode="Z" horiz-adv-x="1193" d="M70 0v219l696 1000h-414v-201h-248v444h998v-211l-701 -1007h476v200h256v-444h-1063z" />
<glyph unicode="[" horiz-adv-x="819" d="M104 -264v1726h611v-235h-330v-1256h330v-235h-611z" />
<glyph unicode="\" horiz-adv-x="1310" d="M242 1462h207l622 -1462h-205z" />
<glyph unicode="]" horiz-adv-x="819" d="M104 -29h330v1256h-330v235h611v-1726h-611v235z" />
<glyph unicode="^" d="M98 356l506 1106h180l510 -1106h-186l-416 908l-407 -908h-187z" />
<glyph unicode="_" horiz-adv-x="1064" d="M20 -154h1024v-102h-1024v102z" />
<glyph unicode="`" horiz-adv-x="983" d="M166 1485l100 221l549 -295l-84 -182z" />
<glyph unicode="a" horiz-adv-x="1372" d="M6 541q0 240 168 410.5t406 170.5q223 0 340 -184v156h391v-234h-137v-627h137v-233h-391v147q-117 -176 -353 -176q-233 0 -397 168.5t-164 401.5zM264 541q0 -133 96.5 -229.5t229.5 -96.5q141 0 237.5 98.5t96.5 239.5q0 135 -97.5 230.5t-232.5 95.5 q-139 0 -234.5 -99.5t-95.5 -238.5z" />
<glyph unicode="b" horiz-adv-x="1363" d="M55 0v233h142v996h-142v233h391v-526q119 174 338 174q231 0 397.5 -166t166.5 -397q0 -225 -148 -385q-74 -82 -177 -130t-210 -48q-240 0 -367 180v-164h-391zM436 553q0 -143 98.5 -240.5t239.5 -97.5q137 0 231.5 100.5t94.5 235.5q0 137 -97.5 234.5t-234.5 97.5 t-234.5 -96.5t-97.5 -233.5z" />
<glyph unicode="c" horiz-adv-x="1189" d="M6 547q0 231 161 405t390 174q186 0 313 -137v105h215v-365h-233q-45 66 -117 109q-72 41 -155 41q-139 0 -231.5 -96.5t-92.5 -235.5t96.5 -234.5t233.5 -95.5q82 0 154.5 41t107.5 111h278q-51 -172 -205.5 -285t-336.5 -113q-240 0 -409 168t-169 408z" />
<glyph unicode="d" horiz-adv-x="1353" d="M6 547q0 231 163 398t392 167q104 0 200.5 -47t160.5 -131v295h-144v233h393v-1229h142v-233h-391v164q-121 -180 -359 -180q-227 0 -392 168t-165 395zM266 543q0 -135 96.5 -232.5t233.5 -97.5q139 0 235.5 99.5t96.5 238.5q0 135 -97.5 231.5t-230.5 96.5 q-139 0 -236.5 -98.5t-97.5 -237.5z" />
<glyph unicode="e" horiz-adv-x="1155" d="M6 543q0 244 164 413.5t405 169.5q113 0 221.5 -47t188.5 -129q154 -162 154 -409l-9 -88h-884q25 -113 118 -188t209 -75q174 0 265 132h260q-66 -158 -206 -254.5t-310 -96.5q-240 0 -408 166t-168 406zM244 645h663q-33 117 -127 187.5t-217 70.5q-111 0 -203.5 -74.5 t-115.5 -183.5z" />
<glyph unicode="f" horiz-adv-x="661" d="M61 0v233h142v627h-142v234h142q-2 203 106.5 305t317.5 102v-223h-8q-86 0 -127 -46q-39 -44 -40 -123q0 -8 1 -15h143v-234h-143v-627h143v-233h-535z" />
<glyph unicode="g" horiz-adv-x="1337" d="M6 549q0 227 165 395t390 168q250 0 365 -178v160h370v-234h-141v-715q0 -147 -25.5 -242.5t-111.5 -181.5q-168 -166 -428 -165q-184 0 -332.5 91t-189.5 259h288q31 -66 99.5 -100.5t146.5 -34.5q143 0 232 100q49 57 62 111.5t13 142.5v41q-113 -182 -350 -182 q-231 0 -392 167t-161 398zM262 551q0 -139 97.5 -237.5t236.5 -98.5t235.5 99.5t96.5 238.5q0 137 -98.5 233.5t-235.5 96.5t-234.5 -97.5t-97.5 -234.5z" />
<glyph unicode="h" horiz-adv-x="1355" d="M61 0v233h142v996h-142v233h392v-532q106 188 327 188q193 0 310 -160q55 -76 72.5 -154.5t17.5 -193.5v-377h141v-233h-533v233h142v310v32v36q0 9 -1 32t-3 35t-6.5 30.5t-11.5 34t-15 29.5q-66 100 -199 100q-119 0 -188 -88q-27 -31 -39 -71.5t-13 -65t-1 -82.5v-332 h141v-233h-533z" />
<glyph unicode="i" horiz-adv-x="634" d="M59 0v233h144v627h-142v234h392v-861h141v-233h-535zM203 1198v264h250v-264h-250z" />
<glyph unicode="j" horiz-adv-x="497" d="M-10 -180q51 2 86 21.5t52 41t26.5 64.5t10.5 69.5t1 81.5v21v741h-141v234h391v-1078q0 -213 -104.5 -314t-321.5 -114v232zM166 1198v264h250v-264h-250z" />
<glyph unicode="k" horiz-adv-x="1253" d="M55 0v233h144v996h-144v233h394v-858l280 281h-113v209h539v-234h-133l-301 -291l319 -336h172v-233h-596v233h93l-260 287v-287h98v-233h-492z" />
<glyph unicode="l" horiz-adv-x="641" d="M57 0v233h152v996h-141v233h391v-1229h141v-233h-543z" />
<glyph unicode="m" horiz-adv-x="2027" d="M61 0v233h142v627h-142v234h369v-164q115 190 315 190q113 0 203 -62.5t137 -166.5q45 102 144.5 165.5t214.5 63.5q193 0 315 -139q41 -47 60.5 -107.5t22.5 -102.5t3 -124v-414h142v-233h-533v233h141v353q0 135 -32 198q-61 90 -179 90q-119 0 -184 -81 q-35 -45 -43 -88t-8 -119v-353h141v-233h-532v233h141v336q0 147 -33 205q-53 100 -180 100q-109 0 -174 -79q-59 -72 -59 -224v-338h141v-233h-533z" />
<glyph unicode="n" horiz-adv-x="1359" d="M61 0v233h142v627h-142v234h392v-156q98 180 323 180q190 0 316 -135q43 -47 63.5 -103.5t24.5 -98.5t4 -119v-429h141v-233h-532v233h141v355q0 137 -43 196q-68 88 -193 88q-131 0 -198 -92q-47 -61 -47 -229v-318h141v-233h-533z" />
<glyph unicode="o" horiz-adv-x="1169" d="M6 551q0 240 169 407.5t409 167.5q236 0 402.5 -169t166.5 -404q0 -240 -168 -411t-407 -171q-238 0 -405 171t-167 409zM252 553q0 -137 94 -236.5t231.5 -99.5t233.5 96.5t96 233.5q0 135 -94 234.5t-229 99.5t-233.5 -96.5t-98.5 -231.5z" />
<glyph unicode="p" horiz-adv-x="1378" d="M55 -166h140v1026h-140v234h391v-172q119 184 359 184q231 0 394 -165t163 -398q0 -227 -160 -393t-385 -166q-240 0 -371 170v-320h142v-233h-533v233zM444 545q0 -137 96.5 -233.5t233.5 -96.5q135 0 232.5 96.5t97.5 231.5t-94.5 234.5t-229.5 99.5 q-139 0 -237.5 -96.5t-98.5 -235.5z" />
<glyph unicode="q" horiz-adv-x="1353" d="M6 543q0 231 164 397t395 166q238 0 357 -184v172h391v-234h-139v-1026h139v-233h-533v233h142v320q-131 -170 -371 -170q-225 0 -385 166t-160 393zM266 543q0 -135 97.5 -231.5t230.5 -96.5q137 0 233.5 96.5t96.5 233.5q0 141 -97.5 236.5t-238.5 95.5 q-135 0 -228.5 -99.5t-93.5 -234.5z" />
<glyph unicode="r" horiz-adv-x="735" d="M55 0v233h142v627h-142v234h373v-187q92 188 328 199v-256q-133 -6 -215 -80q-94 -80 -95 -260v-277h142v-233h-533z" />
<glyph unicode="s" horiz-adv-x="978" d="M76 786q0 152 108.5 241t261.5 89q170 0 248 -98v76h185v-297h-242q-2 57 -42 93t-99 36q-55 0 -97.5 -31t-42.5 -84q0 -37 15.5 -62.5t47.5 -42t54.5 -22.5t63.5 -16q72 -16 118.5 -30.5t107 -42.5t96.5 -62.5t60.5 -90t24.5 -127.5q0 -160 -114.5 -252t-276.5 -92 q-180 0 -283 119v-90h-190v317h256q6 -74 53 -118.5t123 -44.5q59 0 104.5 37.5t45.5 97.5q0 16 -3.5 30.5t-7.5 24.5t-14 20.5l-16.5 17.5t-21.5 14l-21 11q-6 3 -26 10t-25 8t-27.5 7t-24.5 6q-74 18 -117 31.5t-104 42.5t-94 62.5t-58.5 87.5t-25.5 124z" />
<glyph unicode="t" horiz-adv-x="681" d="M0 860v234h172v368h250v-368h186v-234h-186v-627h199v-233h-449v860h-172z" />
<glyph unicode="u" horiz-adv-x="1316" d="M35 860v234h391v-592q0 -143 43 -205q61 -94 184 -94q115 0 185 90q47 66 47 215v352h-142v234h392v-861h141v-233h-371v135q-53 -78 -142 -121t-188 -43q-186 0 -303 140q-96 113 -96 317v432h-141z" />
<glyph unicode="v" horiz-adv-x="1265" d="M31 860v234h510v-234h-111l201 -553h2l215 553h-117v234h504v-234h-129l-344 -860h-262l-336 860h-133z" />
<glyph unicode="w" horiz-adv-x="1814" d="M31 860v234h506v-234h-121l157 -514h2l230 707h205l213 -707h2l168 514h-125v234h516v-234h-146l-299 -860h-241l-199 643l-235 -643h-234l-262 860h-137z" />
<glyph unicode="x" horiz-adv-x="1316" d="M68 0v233h129l288 320l-282 307h-123v234h504v-193h-92l167 -190l166 190h-92v193h498v-234h-123l-279 -307l293 -320h127v-233h-516v205h86l-160 194l-161 -194h86v-205h-516z" />
<glyph unicode="y" horiz-adv-x="1275" d="M31 860v234h516v-234h-107l195 -534l207 534h-107v234h510v-234h-137l-424 -1026h143v-233h-532v233h137l74 180l-332 846h-143z" />
<glyph unicode="z" horiz-adv-x="1015" d="M61 0v201l555 659h-311v-129h-219v363h840v-226l-527 -635h336v121h219v-354h-893z" />
<glyph unicode="{" horiz-adv-x="696" d="M94 604q55 10 105 45q29 23 42 54.5t14 52t1 67.5v336q0 172 61 234q37 35 98.5 51t92.5 17t113 1q-88 -27 -124 -81t-36 -150v-354q0 -121 -35 -185.5t-143 -87.5q104 -25 141 -85t37 -173v-379q0 -98 33.5 -150.5t126.5 -80.5h-42h-44q-10 0 -38 1t-42.5 5t-37 9 t-41 14.5t-36.5 21.5q-53 35 -68.5 87t-15.5 130v379q0 39 -1 57.5t-11.5 44t-30.5 50.5q-45 51 -119 69z" />
<glyph unicode="|" d="M602 -512v2048h189v-2048h-189z" />
<glyph unicode="}" horiz-adv-x="696" d="M96 1460h105q51 0 105 -16.5t91 -50.5q61 -61 62 -234v-336q0 -47 1 -67.5t14 -52t42 -54.5q49 -35 105 -45q-74 -18 -119 -69q-20 -25 -30.5 -50.5t-11.5 -44t-1 -57.5v-379q0 -78 -15.5 -130t-68.5 -87q-18 -12 -37 -21.5t-41.5 -14.5t-35.5 -9t-40.5 -5t-38.5 -1h-44 h-42q90 29 124 81t34 150v379q0 113 37 173.5t141 84.5q-106 23 -142 88.5t-36 184.5v354q0 96 -35 150t-123 79z" />
<glyph unicode="~" d="M102 643q76 119 155 187.5t192 68.5q94 0 265 -68.5t224 -68.5q23 0 43 8t33.5 16.5t34 31t26.5 30.5t26.5 37.5l22.5 32.5l148 -95l-53 -73q-14 -20 -52.5 -62.5t-66 -60t-71.5 -32.5t-91 -15q-76 0 -213 51l-98 39q-12 4 -41 15l-46.5 17.5t-43 11.5t-43.5 5 q-23 0 -41.5 -4t-35.5 -17l-30 -21q-12 -9 -28.5 -30.5t-22.5 -31.5l-24 -35l-21 -33z" />
<glyph unicode="&#xa1;" horiz-adv-x="708" d="M225 -371v1024h258v-1024h-258zM225 805v289h258v-289h-258z" />
<glyph unicode="&#xa2;" horiz-adv-x="1228" d="M141 727q0 168 109.5 306t273.5 171v203h205v-199q104 -27 172 -100v80h158v-332h-238q-25 51 -78 79t-112 28q-96 0 -164 -67t-68 -165t69 -163.5t169 -65.5q102 0 176 90h274q-37 -129 -131 -213t-227 -121v-199h-205v207q-164 29 -273.5 162t-109.5 299z" />
<glyph unicode="&#xa3;" horiz-adv-x="1228" d="M47 614v205h137q-61 96 -61 215q0 193 139 326t320 133q137 0 241 -115v84h230v-405h-230q-4 92 -65.5 147.5t-147.5 55.5q-96 0 -161.5 -70t-65.5 -174q0 -109 76 -197h375v-205h-252q94 -119 94 -211q0 -121 -92 -188h127q127 0 178 43q72 55 72 166q0 35 -13 76h215 q20 -53 21 -109q0 -184 -140 -297q-111 -94 -319 -94h-590v215h152q59 10 95 53t36 109q0 47 -20.5 94t-37 69.5t-59.5 73.5h-254z" />
<glyph unicode="&#xa4;" horiz-adv-x="1228" d="M96 319l113 111q-84 113 -84 272.5t84 272.5l-111 108l142 142l106 -109q121 84 277 84q143 0 276 -82l107 107l141 -142l-109 -106q82 -117 82 -277q0 -135 -82 -272l109 -109l-141 -137l-107 107q-133 -86 -272 -86q-152 0 -279 86l-108 -107zM350 702.5 q0 -112.5 79 -193.5t191.5 -81t193.5 79t81 191q0 115 -80 196t-192.5 81t-192.5 -80t-80 -192.5z" />
<glyph unicode="&#xa5;" horiz-adv-x="1228" d="M20 1231v231h498v-231h-117l217 -488l216 488h-117v231h491v-231h-129l-170 -371h238v-117h-295l-43 -88h338v-116h-395l-13 -31v-275h142v-233h-525v233h140v275l-17 31h-399v116h342l-39 88h-303v117h246l-174 371h-132z" />
<glyph unicode="&#xa6;" d="M602 358h189v-716h-189v716zM602 666v716h189v-716h-189z" />
<glyph unicode="&#xa7;" horiz-adv-x="983" d="M96 84v31h219q-1 -12 -1 -23q0 -68 43 -108q50 -47 137 -47q76 0 129 40.5t53 114.5q0 35 -14.5 62.5t-31 44t-50 30t-53.5 18.5l-60 15q-348 80 -348 354q0 100 57 178t154 111q-201 76 -201 246q0 137 105.5 224t246.5 87q152 0 262.5 -86t108.5 -235h-209q1 9 1 17 q0 46 -39 76q-46 36 -105 36q-63 0 -108.5 -38t-45.5 -102q0 -18 4 -34.5t14.5 -30.5l18.5 -24.5t26 -20.5l27 -16q10 -6 33 -13.5t31 -10.5t32.5 -10t30.5 -9q135 -37 197 -95q111 -94 110 -245q0 -188 -182 -285q199 -70 199 -266q0 -150 -116 -244t-267 -94 q-170 0 -283 94q-125 104 -125 258zM326 612q0 -68 50 -109.5t118 -41.5q63 0 112 44t49 107q0 66 -49 110t-114 44q-68 0 -117 -44t-49 -110z" />
<glyph unicode="&#xa8;" horiz-adv-x="983" d="M176 1198v264h250v-264h-250zM557 1198v264h250v-264h-250z" />
<glyph unicode="&#xa9;" horiz-adv-x="1720" d="M98 737q0 317 223.5 540.5t540.5 223.5q313 0 537.5 -222t224.5 -536q0 -324 -223 -548t-547 -224q-313 0 -534.5 226.5t-221.5 539.5zM201 739q0 -274 193.5 -467.5t467.5 -193.5q270 0 464 191.5t194 461.5q0 279 -192.5 471.5t-469.5 192.5q-270 0 -463.5 -193 t-193.5 -463zM428 729q0 205 129 337t332 132q133 0 246.5 -65.5t140.5 -184.5l-139 -33q-16 94 -84 145.5t-170 51.5q-150 0 -234 -109.5t-84 -265t81 -259t233 -103.5q205 0 274 207l123 -39q-41 -125 -158 -191.5t-256 -66.5q-197 0 -315.5 123.5t-118.5 320.5z" />
<glyph unicode="&#xaa;" horiz-adv-x="901" d="M47 1151q0 141 98.5 245.5t237.5 104.5q131 0 203 -92v74h245v-152h-83v-354h83v-152h-245v72q-72 -90 -201 -90q-141 0 -239.5 101.5t-98.5 242.5zM213 1151q0 -76 54.5 -130t129.5 -54q80 0 134.5 55t54.5 135q0 76 -54.5 130t-130.5 54q-80 0 -134 -55t-54 -135z" />
<glyph unicode="&#xab;" horiz-adv-x="778" d="M94 451v194l252 291l12 -236l-131 -161l131 -160l-12 -221zM424 451v186l250 295l12 -244l-127 -151l127 -152l-12 -217z" />
<glyph unicode="&#xac;" d="M100 797v190h1192v-631h-190v441h-1002z" />
<glyph unicode="&#xad;" horiz-adv-x="696" d="M86 414v248h524v-248h-524z" />
<glyph unicode="&#xae;" horiz-adv-x="1720" d="M96 739q0 317 225.5 539.5t541 222.5t538.5 -224t223 -541.5t-225 -541t-543 -223.5q-315 0 -537.5 226.5t-222.5 541.5zM203 739q0 -279 192.5 -470t470.5 -191q270 0 462 195.5t192 465.5q0 274 -195 466t-469 192q-270 0 -461.5 -194t-191.5 -464zM547 291v909h416 q145 0 217 -41q106 -61 106 -207q0 -123 -74.5 -184t-201.5 -66l260 -411h-150l-246 411h-198v-411h-129zM676 801h237q70 0 117 8t87 46t40 106q0 47 -19.5 78.5t-56.5 45t-71.5 18.5t-79.5 5h-254v-307z" />
<glyph unicode="&#xaf;" horiz-adv-x="1105" d="M166 1305v200h786v-200h-786z" />
<glyph unicode="&#xb0;" horiz-adv-x="860" d="M123 1194q0 127 90 217t217 90t217 -91t90 -216q0 -127 -90 -217t-217 -90t-217 90t-90 217zM266 1194q0 -68 47 -114t117 -50q70 0 117 47t47 117t-47 117t-117 47t-117 -47t-47 -117z" />
<glyph unicode="&#xb1;" d="M176 209v188h1041v-188h-1041zM176 827v189h426v237h189v-237h426v-189h-426v-241h-189v241h-426z" />
<glyph unicode="&#xb2;" horiz-adv-x="753" d="M59 1192q-2 133 91.5 221t234.5 88q129 0 219 -84t90 -203q0 -61 -28.5 -115.5t-60.5 -85t-93 -81.5l-223 -191h243v93h156v-234h-625v141l343 306q2 2 21 19t24 21l19 21q15 16 20 25l15 23q9 15 12 28.5t3 27.5q0 55 -43 91t-102 36q-66 0 -107 -43q-37 -39 -37 -93 v-11h-172z" />
<glyph unicode="&#xb3;" horiz-adv-x="753" d="M37 854h178q10 -53 51 -89t101 -36q63 0 108 42t45 99q0 66 -48 106t-120 40h-45v127h37q150 0 150 112q0 49 -34 79t-87 30q-47 0 -80 -27.5t-35 -72.5h-164q0 104 85 170.5t197.5 66.5t194.5 -63.5t82 -165.5q0 -55 -29.5 -105.5t-80.5 -74.5q74 -27 119 -89.5 t45 -138.5q0 -119 -100.5 -199.5t-229.5 -80.5q-135 0 -234.5 72.5t-105.5 197.5z" />
<glyph unicode="&#xb4;" horiz-adv-x="983" d="M166 1407l543 307l108 -219l-565 -266z" />
<glyph unicode="&#xb5;" horiz-adv-x="1351" d="M55 860v234h391v-592q0 -299 228 -299q14 0 34.5 3t57.5 19.5t65.5 44t51 85t22.5 132.5v373h-141v234h391v-861h141v-233h-370v135q-53 -78 -142.5 -121t-187.5 -43q-84 0 -150 29v-399h-249v1259h-142z" />
<glyph unicode="&#xb6;" horiz-adv-x="1146" d="M53 1096q0 168 125 276q61 53 129 71.5t166 18.5h655v-233h-141v-1493h-184v1493h-201v-1493h-184v995q-154 4 -259.5 107.5t-105.5 257.5z" />
<glyph unicode="&#xb7;" horiz-adv-x="655" d="M199 590v289h258v-289h-258z" />
<glyph unicode="&#xb8;" horiz-adv-x="778" d="M162 -362h151q18 -61 74 -62q35 0 55.5 21.5t20.5 54.5t-21.5 56.5t-54.5 23.5q-41 0 -70 -33l-122 51l98 250h160l-58 -141l27 2q82 0 138 -60.5t56 -144.5q0 -100 -65.5 -164.5t-165.5 -64.5q-92 0 -154.5 60.5t-68.5 150.5z" />
<glyph unicode="&#xb9;" horiz-adv-x="753" d="M158 1323v139h315v-737h113v-139h-400v139h111v598h-139z" />
<glyph unicode="&#xba;" horiz-adv-x="778" d="M53 1161q0 143 100.5 241.5t243.5 98.5q139 0 239.5 -99t100.5 -237q0 -143 -100 -245.5t-244 -102.5q-141 0 -240.5 101.5t-99.5 242.5zM215 1161q0 -76 52 -130t126 -54q76 0 129 53t53 129q0 74 -52 128t-126 54q-76 0 -129 -53t-53 -127z" />
<glyph unicode="&#xbb;" horiz-adv-x="778" d="M94 385l125 152l-125 151l12 244l248 -295v-186l-248 -283zM422 379l129 160l-129 161l10 236l254 -291v-194l-254 -293z" />
<glyph unicode="&#xbc;" horiz-adv-x="1822" d="M135 1323v139h316v-737h112v-139h-399v139h110v598h-139zM412 0l659 1462h201l-656 -1462h-204zM965 233v127l409 517h203v-517h143v-127h-143v-94h111v-139h-396v139h111v94h-438zM1157 360h246v318z" />
<glyph unicode="&#xbd;" horiz-adv-x="1822" d="M158 1323v139h315v-737h113v-139h-400v139h111v598h-139zM432 0l660 1462h200l-655 -1462h-205zM1087 592q-2 133 91.5 221t234.5 88q129 0 219 -84t90 -203q0 -61 -28.5 -115.5t-60 -85t-93.5 -81.5l-223 -191h244v92h155v-233h-624v141l342 305q2 2 21.5 19.5 t23.5 21.5l19 21q15 16 21 24l14 24q9 15 12 28.5t3 27.5q0 55 -43 91t-102 36q-66 0 -107 -43q-37 -39 -37 -93q0 -5 1 -11h-173z" />
<glyph unicode="&#xbe;" horiz-adv-x="1822" d="M41 854h178q10 -53 51 -89t101 -36q63 0 108 42t45 99q0 66 -48 106t-120 40h-45v127h37q150 0 150 112q0 49 -34 79t-87 30q-47 0 -80 -27.5t-35 -72.5h-164q0 104 85 170.5t198 66.5t194.5 -63.5t81.5 -165.5q0 -55 -29.5 -105.5t-80.5 -74.5q74 -27 119 -89.5 t45 -138.5q0 -119 -100.5 -199.5t-229.5 -80.5q-135 0 -234.5 72.5t-105.5 197.5zM483 0l660 1462h200l-655 -1462h-205zM1006 233v127l409 517h203v-517h143v-127h-143v-94h111v-139h-396v139h111v94h-438zM1198 360h246v318z" />
<glyph unicode="&#xbf;" horiz-adv-x="1146" d="M94 72q0 94 32 164.5t80 116.5t98 88t91 102.5t54 138.5h258q0 -119 -50.5 -203t-154.5 -180l-53.5 -49t-39 -44t-35.5 -62.5t-9 -67.5q0 -86 62 -150.5t151 -64.5q100 0 161.5 66.5t63.5 166.5h262v-11q0 -201 -138 -343q-142 -145 -352 -146q-195 0 -338 141.5 t-143 336.5zM449 805v289h258v-289h-258z" />
<glyph unicode="&#xc0;" horiz-adv-x="1642" d="M33 0v233h155l426 996h-161v233h489l512 -1229h156v-233h-617v205h162l-86 219h-514l-84 -219h158v-205h-596zM451 1853l100 222l549 -295l-84 -183zM627 639h372l-184 502h-2z" />
<glyph unicode="&#xc1;" horiz-adv-x="1642" d="M33 0v233h155l426 996h-161v233h489l512 -1229h156v-233h-617v205h162l-86 219h-514l-84 -219h158v-205h-596zM451 1776l542 307l109 -219l-565 -267zM627 639h372l-184 502h-2z" />
<glyph unicode="&#xc2;" horiz-adv-x="1642" d="M33 0v233h155l426 996h-161v233h489l512 -1229h156v-233h-617v205h162l-86 219h-514l-84 -219h158v-205h-596zM348 1661l354 344h172l355 -344h-283l-158 154l-157 -154h-283zM627 639h372l-184 502h-2z" />
<glyph unicode="&#xc3;" horiz-adv-x="1642" d="M33 0v233h155l426 996h-161v233h489l512 -1229h156v-233h-617v205h162l-86 219h-514l-84 -219h158v-205h-596zM391 1851q94 76 207 76q57 0 152 -29q88 -31 147 -30q96 0 158 55l121 -166q-104 -92 -230 -92q-59 0 -153.5 30.5t-133.5 30.5q-72 0 -137 -59zM627 639h372 l-184 502h-2z" />
<glyph unicode="&#xc4;" horiz-adv-x="1642" d="M33 0v233h155l426 996h-161v233h489l512 -1229h156v-233h-617v205h162l-86 219h-514l-84 -219h158v-205h-596zM461 1567v264h250v-264h-250zM627 639h372l-184 502h-2zM842 1567v264h250v-264h-250z" />
<glyph unicode="&#xc5;" horiz-adv-x="1642" d="M33 0v233h155l426 996h-161v233h489l512 -1229h156v-233h-617v205h162l-86 219h-514l-84 -219h158v-205h-596zM555 1837q0 98 71.5 168t170 70t168 -72t69.5 -170t-69.5 -169t-167.5 -71q-100 0 -171 71t-71 173zM627 639h372l-184 502h-2zM698 1831q0 -39 29 -66.5 t68 -27.5q41 0 68.5 29.5t27.5 70.5q0 39 -28.5 66.5t-67.5 27.5q-41 0 -69 -29.5t-28 -70.5z" />
<glyph unicode="&#xc6;" horiz-adv-x="2056" d="M33 0v233h162l679 996h-153v233h1257v-440h-278v192h-371v-368h428v-211h-428v-389h371v196h278v-442h-1085v197h158v233h-433l-153 -233h160v-197h-592zM743 635h308v475h-2z" />
<glyph unicode="&#xc7;" horiz-adv-x="1505" d="M-23 743q0 309 219.5 533.5t528.5 224.5q279 0 453 -180v147h229v-467h-266q-59 102 -171 163t-233 61q-207 0 -343 -138.5t-136 -345.5q0 -197 139.5 -339t335.5 -142q127 0 235.5 58.5t176.5 162.5h301q-68 -211 -251 -350t-407 -156l-47 -116l27 2q82 0 138.5 -60.5 t56.5 -144.5q0 -100 -66 -164.5t-166 -64.5q-92 0 -154.5 60t-68.5 151h151q18 -61 74 -62q33 0 54.5 21.5t21.5 54.5t-21.5 56.5t-54.5 23.5q-41 0 -69 -33l-123 51l90 230q-254 39 -432 217q-222 224 -222 546z" />
<glyph unicode="&#xc8;" horiz-adv-x="1224" d="M63 0v233h160v996h-160v233h1084v-440h-279v190h-366v-364h426v-217h-426v-387h366v198h279v-442h-1084zM287 1853l100 222l549 -295l-84 -183z" />
<glyph unicode="&#xc9;" horiz-adv-x="1224" d="M63 0v233h160v996h-160v233h1084v-440h-279v190h-366v-364h426v-217h-426v-387h366v198h279v-442h-1084zM287 1776l542 307l109 -219l-565 -267z" />
<glyph unicode="&#xca;" horiz-adv-x="1224" d="M63 0v233h160v996h-160v233h1084v-440h-279v190h-366v-364h426v-217h-426v-387h366v198h279v-442h-1084zM164 1661l354 344h172l354 -344h-282l-158 154l-158 -154h-282z" />
<glyph unicode="&#xcb;" horiz-adv-x="1224" d="M63 0v233h160v996h-160v233h1084v-440h-279v190h-366v-364h426v-217h-426v-387h366v198h279v-442h-1084zM297 1567v264h250v-264h-250zM678 1567v264h250v-264h-250z" />
<glyph unicode="&#xcc;" horiz-adv-x="733" d="M41 1853l100 222l549 -295l-84 -183zM63 0v233h160v996h-160v233h596v-233h-157v-996h157v-233h-596z" />
<glyph unicode="&#xcd;" horiz-adv-x="733" d="M41 1776l543 307l108 -219l-565 -267zM63 0v233h160v996h-160v233h596v-233h-157v-996h157v-233h-596z" />
<glyph unicode="&#xce;" horiz-adv-x="733" d="M-61 1661l354 344h172l354 -344h-282l-158 154l-158 -154h-282zM63 0v233h160v996h-160v233h596v-233h-157v-996h157v-233h-596z" />
<glyph unicode="&#xcf;" horiz-adv-x="733" d="M51 1567v264h250v-264h-250zM63 0v233h160v996h-160v233h596v-233h-157v-996h157v-233h-596zM432 1567v264h250v-264h-250z" />
<glyph unicode="&#xd0;" horiz-adv-x="1452" d="M63 0v233h160v398h-160v217h160v381h-160v233h695q162 0 282.5 -43t227.5 -149q207 -209 207 -543q0 -299 -189 -510q-193 -217 -532 -217h-691zM502 252h219q119 0 204 26.5t152 102.5q119 137 119 346q0 236 -127 371q-70 72 -148.5 94t-195.5 22h-223v-366h278v-217 h-278v-379z" />
<glyph unicode="&#xd1;" horiz-adv-x="1630" d="M49 0v233h158v996h-158v233h410l696 -979v746h-160v233h596v-233h-157v-1229h-260l-689 963v-730h160v-233h-596zM438 1851q94 76 207 76q57 0 152 -29q88 -31 147 -30q96 0 158 55l121 -166q-104 -92 -230 -92q-59 0 -153.5 30.5t-132.5 30.5q-72 0 -138 -59z" />
<glyph unicode="&#xd2;" horiz-adv-x="1488" d="M-23 731q0 322 225.5 545t547.5 223q313 0 537 -222t224 -534q0 -322 -224 -548t-544 -226q-317 0 -541.5 223.5t-224.5 538.5zM264 739q0 -205 139.5 -348t339.5 -143q203 0 342.5 144.5t139.5 348.5q0 197 -140.5 338.5t-336.5 141.5q-201 0 -342.5 -140.5 t-141.5 -341.5zM410 1853l100 222l549 -295l-84 -183z" />
<glyph unicode="&#xd3;" horiz-adv-x="1488" d="M-23 731q0 322 225.5 545t547.5 223q313 0 537 -222t224 -534q0 -322 -224 -548t-544 -226q-317 0 -541.5 223.5t-224.5 538.5zM264 739q0 -205 139.5 -348t339.5 -143q203 0 342.5 144.5t139.5 348.5q0 197 -140.5 338.5t-336.5 141.5q-201 0 -342.5 -140.5 t-141.5 -341.5zM410 1776l542 307l109 -219l-565 -267z" />
<glyph unicode="&#xd4;" horiz-adv-x="1488" d="M-23 731q0 322 225.5 545t547.5 223q313 0 537 -222t224 -534q0 -322 -224 -548t-544 -226q-317 0 -541.5 223.5t-224.5 538.5zM264 739q0 -205 139.5 -348t339.5 -143q203 0 342.5 144.5t139.5 348.5q0 197 -140.5 338.5t-336.5 141.5q-201 0 -342.5 -140.5 t-141.5 -341.5zM287 1661l354 344h172l354 -344h-282l-158 154l-158 -154h-282z" />
<glyph unicode="&#xd5;" horiz-adv-x="1488" d="M-23 731q0 322 225.5 545t547.5 223q313 0 537 -222t224 -534q0 -322 -224 -548t-544 -226q-317 0 -541.5 223.5t-224.5 538.5zM264 739q0 -205 139.5 -348t339.5 -143q203 0 342.5 144.5t139.5 348.5q0 197 -140.5 338.5t-336.5 141.5q-201 0 -342.5 -140.5 t-141.5 -341.5zM350 1851q94 76 207 76q57 0 152 -29q88 -31 147 -30q96 0 158 55l121 -166q-104 -92 -230 -92q-59 0 -153.5 30.5t-133.5 30.5q-72 0 -137 -59z" />
<glyph unicode="&#xd6;" horiz-adv-x="1488" d="M-23 731q0 322 225.5 545t547.5 223q313 0 537 -222t224 -534q0 -322 -224 -548t-544 -226q-317 0 -541.5 223.5t-224.5 538.5zM264 739q0 -205 139.5 -348t339.5 -143q203 0 342.5 144.5t139.5 348.5q0 197 -140.5 338.5t-336.5 141.5q-201 0 -342.5 -140.5 t-141.5 -341.5zM420 1567v264h250v-264h-250zM801 1567v264h250v-264h-250z" />
<glyph unicode="&#xd7;" d="M207 377l356 356l-356 357l133 133l356 -357l357 357l133 -133l-357 -357l357 -356l-133 -133l-357 356l-356 -356z" />
<glyph unicode="&#xd8;" horiz-adv-x="1519" d="M-2 733q0 322 224 545t544 223q180 0 364 -98l29 -17l146 179l155 -123l-145 -178q207 -225 207 -537q0 -317 -227.5 -536.5t-546.5 -219.5q-180 0 -322 72l-72 37l-147 -184l-154 122l152 187q-207 221 -207 528zM281 731q0 -145 110 -295l590 725q-133 63 -229 64 q-197 0 -334 -147.5t-137 -346.5zM539 307q133 -59 221 -59q203 0 341 141t138 344q0 92 -24.5 157.5t-81.5 145.5z" />
<glyph unicode="&#xd9;" horiz-adv-x="1435" d="M39 1229v233h569v-233h-133v-688q0 -139 43 -205q68 -102 201 -103q119 0 188 89q53 70 54 219v688h-134v233h570v-233h-158v-725q0 -125 -28.5 -215t-104.5 -170q-141 -147 -387 -148q-240 0 -377 135q-84 82 -114.5 178.5t-30.5 227.5v717h-158zM383 1853l100 222 l549 -295l-84 -183z" />
<glyph unicode="&#xda;" horiz-adv-x="1435" d="M39 1229v233h569v-233h-133v-688q0 -139 43 -205q68 -102 201 -103q119 0 188 89q53 70 54 219v688h-134v233h570v-233h-158v-725q0 -125 -28.5 -215t-104.5 -170q-141 -147 -387 -148q-240 0 -377 135q-84 82 -114.5 178.5t-30.5 227.5v717h-158zM383 1776l543 307 l108 -219l-565 -267z" />
<glyph unicode="&#xdb;" horiz-adv-x="1435" d="M39 1229v233h569v-233h-133v-688q0 -139 43 -205q68 -102 201 -103q119 0 188 89q53 70 54 219v688h-134v233h570v-233h-158v-725q0 -125 -28.5 -215t-104.5 -170q-141 -147 -387 -148q-240 0 -377 135q-84 82 -114.5 178.5t-30.5 227.5v717h-158zM281 1661l354 344h172 l354 -344h-282l-158 154l-158 -154h-282z" />
<glyph unicode="&#xdc;" horiz-adv-x="1435" d="M39 1229v233h569v-233h-133v-688q0 -139 43 -205q68 -102 201 -103q119 0 188 89q53 70 54 219v688h-134v233h570v-233h-158v-725q0 -125 -28.5 -215t-104.5 -170q-141 -147 -387 -148q-240 0 -377 135q-84 82 -114.5 178.5t-30.5 227.5v717h-158zM414 1567v264h250v-264 h-250zM795 1567v264h249v-264h-249z" />
<glyph unicode="&#xdd;" horiz-adv-x="1409" d="M33 1229v233h565v-233h-135l246 -484l243 484h-139v233h563v-233h-145l-385 -719v-277h160v-233h-596v233h157v277l-387 719h-147zM389 1776l543 307l108 -219l-565 -267z" />
<glyph unicode="&#xde;" horiz-adv-x="1183" d="M66 1462h596v-233h-160v-80h145q131 0 226.5 -16.5t177.5 -59.5t124 -128t42 -212q0 -213 -139.5 -311t-375.5 -98h-200v-91h160v-233h-596v233h157v996h-157v233zM502 547h166q135 0 201.5 38t66.5 148q0 113 -74 153t-207 40h-153v-379z" />
<glyph unicode="&#xdf;" horiz-adv-x="1226" d="M45 0v233h143v732q0 117 24 201.5t89 162.5q68 80 162 126t176 46q182 0 309 -119.5t127 -302.5q0 -94 -45 -172t-129 -112q145 -23 227 -131.5t82 -260.5q0 -193 -121.5 -314.5t-302.5 -121.5q-104 0 -208 39v234q78 -43 159 -43q92 0 158 62.5t66 154.5 q0 121 -93.5 178t-220.5 57h-55v221h33q86 0 141 53.5t55 139.5q0 82 -51 135t-127 53q-96 0 -162 -92q-20 -29 -30.5 -67.5t-11.5 -61t-1 -76.5v-954h-393z" />
<glyph unicode="&#xe0;" horiz-adv-x="1372" d="M6 541q0 240 168 410.5t406 170.5q223 0 340 -184v156h391v-234h-137v-627h137v-233h-391v147q-117 -176 -353 -176q-233 0 -397 168.5t-164 401.5zM264 541q0 -133 96.5 -229.5t229.5 -96.5q141 0 237.5 98.5t96.5 239.5q0 135 -97.5 230.5t-232.5 95.5 q-139 0 -234.5 -99.5t-95.5 -238.5zM332 1485l100 221l549 -295l-84 -182z" />
<glyph unicode="&#xe1;" horiz-adv-x="1372" d="M6 541q0 240 168 410.5t406 170.5q223 0 340 -184v156h391v-234h-137v-627h137v-233h-391v147q-117 -176 -353 -176q-233 0 -397 168.5t-164 401.5zM264 541q0 -133 96.5 -229.5t229.5 -96.5q141 0 237.5 98.5t96.5 239.5q0 135 -97.5 230.5t-232.5 95.5 q-139 0 -234.5 -99.5t-95.5 -238.5zM332 1407l542 307l109 -219l-565 -266z" />
<glyph unicode="&#xe2;" horiz-adv-x="1372" d="M6 541q0 240 168 410.5t406 170.5q223 0 340 -184v156h391v-234h-137v-627h137v-233h-391v147q-117 -176 -353 -176q-233 0 -397 168.5t-164 401.5zM209 1272l354 344h172l355 -344h-283l-158 153l-157 -153h-283zM264 541q0 -133 96.5 -229.5t229.5 -96.5 q141 0 237.5 98.5t96.5 239.5q0 135 -97.5 230.5t-232.5 95.5q-139 0 -234.5 -99.5t-95.5 -238.5z" />
<glyph unicode="&#xe3;" horiz-adv-x="1372" d="M6 541q0 240 168 410.5t406 170.5q223 0 340 -184v156h391v-234h-137v-627h137v-233h-391v147q-117 -176 -353 -176q-233 0 -397 168.5t-164 401.5zM252 1483q94 76 207 76q57 0 151 -29q88 -31 148 -31q96 0 157 55l121 -165q-104 -92 -229 -93q-59 0 -153.5 31 t-133.5 31q-72 0 -137 -60zM264 541q0 -133 96.5 -229.5t229.5 -96.5q141 0 237.5 98.5t96.5 239.5q0 135 -97.5 230.5t-232.5 95.5q-139 0 -234.5 -99.5t-95.5 -238.5z" />
<glyph unicode="&#xe4;" horiz-adv-x="1372" d="M6 541q0 240 168 410.5t406 170.5q223 0 340 -184v156h391v-234h-137v-627h137v-233h-391v147q-117 -176 -353 -176q-233 0 -397 168.5t-164 401.5zM264 541q0 -133 96.5 -229.5t229.5 -96.5q141 0 237.5 98.5t96.5 239.5q0 135 -97.5 230.5t-232.5 95.5 q-139 0 -234.5 -99.5t-95.5 -238.5zM322 1198v264h249v-264h-249zM702 1198v264h250v-264h-250z" />
<glyph unicode="&#xe5;" horiz-adv-x="1372" d="M6 541q0 240 168 410.5t406 170.5q223 0 340 -184v156h391v-234h-137v-627h137v-233h-391v147q-117 -176 -353 -176q-233 0 -397 168.5t-164 401.5zM264 541q0 -133 96.5 -229.5t229.5 -96.5q141 0 237.5 98.5t96.5 239.5q0 135 -97.5 230.5t-232.5 95.5 q-139 0 -234.5 -99.5t-95.5 -238.5zM375 1468q0 98 71.5 168t170 70t168 -71.5t69.5 -170t-69.5 -169t-168.5 -70.5q-100 0 -170.5 70.5t-70.5 172.5zM518 1462q0 -39 28.5 -66.5t67.5 -27.5q41 0 69 29.5t28 70.5q0 39 -29 67t-68 28q-41 0 -68.5 -30t-27.5 -71z" />
<glyph unicode="&#xe6;" horiz-adv-x="2095" d="M6 559q0 227 167 397t394 170q215 0 348 -172v140h250v-154q127 186 353 186q231 0 396 -170t165 -399q0 -94 -6 -94h-889q20 -109 112.5 -178.5t204.5 -69.5q141 0 248 113h289q-68 -162 -213.5 -259.5t-319.5 -97.5q-104 0 -195 52.5t-145 140.5v-164h-250v168 q-51 -92 -137 -144.5t-190 -52.5q-242 0 -412 172t-170 416zM256 561q0 -143 97.5 -244.5t238.5 -101.5q147 0 247.5 98.5t100.5 245.5q0 135 -104.5 234.5t-239.5 99.5q-133 0 -236.5 -99.5t-103.5 -232.5zM1182 653h641q-33 104 -121 172t-197 68q-117 0 -200.5 -64.5 t-122.5 -175.5z" />
<glyph unicode="&#xe7;" horiz-adv-x="1189" d="M6 547q0 231 161 405t390 174q186 0 313 -137v105h215v-365h-233q-45 66 -117 109q-72 41 -155 41q-139 0 -231.5 -96.5t-92.5 -235.5t96.5 -234.5t233.5 -95.5q82 0 154.5 41t107.5 111h278q-45 -156 -179 -264.5t-296 -127.5l-49 -118l27 2q82 0 138 -60.5t56 -144.5 q0 -100 -65.5 -164.5t-165.5 -64.5q-92 0 -154 60q-63 61 -69 151h151q18 -61 74 -62q33 0 54.5 21.5t21.5 54.5t-21.5 56.5t-54.5 23.5q-41 0 -70 -33l-123 51l91 232q-209 33 -347.5 192.5t-138.5 372.5z" />
<glyph unicode="&#xe8;" horiz-adv-x="1155" d="M6 543q0 244 164 413.5t405 169.5q113 0 221.5 -47t188.5 -129q154 -162 154 -409l-9 -88h-884q25 -113 118 -188t209 -75q174 0 265 132h260q-66 -158 -206 -254.5t-310 -96.5q-240 0 -408 166t-168 406zM227 1485l101 221l549 -295l-84 -182zM244 645h663 q-33 117 -127 187.5t-217 70.5q-111 0 -203.5 -74.5t-115.5 -183.5z" />
<glyph unicode="&#xe9;" horiz-adv-x="1155" d="M6 543q0 244 164 413.5t405 169.5q113 0 221.5 -47t188.5 -129q154 -162 154 -409l-9 -88h-884q25 -113 118 -188t209 -75q174 0 265 132h260q-66 -158 -206 -254.5t-310 -96.5q-240 0 -408 166t-168 406zM244 645h663q-33 117 -127 187.5t-217 70.5q-111 0 -203.5 -74.5 t-115.5 -183.5zM248 1407l543 307l108 -219l-565 -266z" />
<glyph unicode="&#xea;" horiz-adv-x="1155" d="M6 543q0 244 164 413.5t405 169.5q113 0 221.5 -47t188.5 -129q154 -162 154 -409l-9 -88h-884q25 -113 118 -188t209 -75q174 0 265 132h260q-66 -158 -206 -254.5t-310 -96.5q-240 0 -408 166t-168 406zM125 1272l354 344h172l355 -344h-283l-158 153l-157 -153h-283z M244 645h663q-33 117 -127 187.5t-217 70.5q-111 0 -203.5 -74.5t-115.5 -183.5z" />
<glyph unicode="&#xeb;" horiz-adv-x="1155" d="M6 543q0 244 164 413.5t405 169.5q113 0 221.5 -47t188.5 -129q154 -162 154 -409l-9 -88h-884q25 -113 118 -188t209 -75q174 0 265 132h260q-66 -158 -206 -254.5t-310 -96.5q-240 0 -408 166t-168 406zM238 1198v264h249v-264h-249zM244 645h663q-33 117 -127 187.5 t-217 70.5q-111 0 -203.5 -74.5t-115.5 -183.5zM618 1198v264h250v-264h-250z" />
<glyph unicode="&#xec;" horiz-adv-x="655" d="M2 1485l100 221l549 -295l-84 -182zM59 0v233h144v627h-142v234h392v-861h141v-233h-535z" />
<glyph unicode="&#xed;" horiz-adv-x="655" d="M2 1407l543 307l108 -219l-565 -266zM59 0v233h144v627h-142v234h392v-861h141v-233h-535z" />
<glyph unicode="&#xee;" horiz-adv-x="655" d="M-121 1272l354 344h173l354 -344h-283l-158 153l-157 -153h-283zM59 0v233h144v627h-142v234h392v-861h141v-233h-535z" />
<glyph unicode="&#xef;" horiz-adv-x="655" d="M12 1198v264h250v-264h-250zM59 0v233h144v627h-142v234h392v-861h141v-233h-535zM393 1198v264h250v-264h-250z" />
<glyph unicode="&#xf0;" horiz-adv-x="1189" d="M6 551q0 240 169 407.5t409 167.5q49 0 88 -8q-55 51 -113 90l-295 -88l-168 109l281 86q-98 47 -207 80l293 80q82 -25 178 -78l254 78l168 -117l-258 -76q348 -289 348 -729q0 -240 -168 -411t-407 -171q-238 0 -405 171t-167 409zM252 553q0 -137 94 -236.5 t231.5 -99.5t233.5 96.5t96 233.5q0 135 -94 234.5t-229 99.5t-233.5 -96.5t-98.5 -231.5z" />
<glyph unicode="&#xf1;" horiz-adv-x="1359" d="M61 0v233h142v627h-142v234h392v-156q98 180 323 180q190 0 316 -135q43 -47 63.5 -103.5t24.5 -98.5t4 -119v-429h141v-233h-532v233h141v355q0 137 -43 196q-68 88 -193 88q-131 0 -198 -92q-47 -61 -47 -229v-318h141v-233h-533zM297 1483q94 76 207 76q57 0 151 -29 q88 -31 148 -31q96 0 158 55l120 -165q-104 -92 -229 -93q-59 0 -153.5 31t-133.5 31q-72 0 -137 -60z" />
<glyph unicode="&#xf2;" horiz-adv-x="1169" d="M6 551q0 240 169 407.5t409 167.5q236 0 402.5 -169t166.5 -404q0 -240 -168 -411t-407 -171q-238 0 -405 171t-167 409zM250 1485l100 221l549 -295l-84 -182zM252 553q0 -137 94 -236.5t231.5 -99.5t233.5 96.5t96 233.5q0 135 -94 234.5t-229 99.5t-233.5 -96.5 t-98.5 -231.5z" />
<glyph unicode="&#xf3;" horiz-adv-x="1169" d="M6 551q0 240 169 407.5t409 167.5q236 0 402.5 -169t166.5 -404q0 -240 -168 -411t-407 -171q-238 0 -405 171t-167 409zM250 1407l543 307l108 -219l-565 -266zM252 553q0 -137 94 -236.5t231.5 -99.5t233.5 96.5t96 233.5q0 135 -94 234.5t-229 99.5t-233.5 -96.5 t-98.5 -231.5z" />
<glyph unicode="&#xf4;" horiz-adv-x="1169" d="M6 551q0 240 169 407.5t409 167.5q236 0 402.5 -169t166.5 -404q0 -240 -168 -411t-407 -171q-238 0 -405 171t-167 409zM147 1272l355 344h172l354 -344h-283l-157 153l-158 -153h-283zM252 553q0 -137 94 -236.5t231.5 -99.5t233.5 96.5t96 233.5q0 135 -94 234.5 t-229 99.5t-233.5 -96.5t-98.5 -231.5z" />
<glyph unicode="&#xf5;" horiz-adv-x="1169" d="M6 551q0 240 169 407.5t409 167.5q236 0 402.5 -169t166.5 -404q0 -240 -168 -411t-407 -171q-238 0 -405 171t-167 409zM190 1483q94 76 207 76q57 0 152 -29q88 -31 147 -31q96 0 158 55l121 -165q-104 -92 -230 -93q-59 0 -153 31t-133 31q-72 0 -137 -60zM252 553 q0 -137 94 -236.5t231.5 -99.5t233.5 96.5t96 233.5q0 135 -94 234.5t-229 99.5t-233.5 -96.5t-98.5 -231.5z" />
<glyph unicode="&#xf6;" horiz-adv-x="1169" d="M6 551q0 240 169 407.5t409 167.5q236 0 402.5 -169t166.5 -404q0 -240 -168 -411t-407 -171q-238 0 -405 171t-167 409zM240 1198v264h249v-264h-249zM252 553q0 -137 94 -236.5t231.5 -99.5t233.5 96.5t96 233.5q0 135 -94 234.5t-229 99.5t-233.5 -96.5t-98.5 -231.5z M621 1198v264h249v-264h-249z" />
<glyph unicode="&#xf7;" d="M176 639v188h1041v-188h-1041zM602 287v223h189v-223h-189zM602 956v224h189v-224h-189z" />
<glyph unicode="&#xf8;" horiz-adv-x="1187" d="M6 545q0 242 172 411.5t416 169.5q154 0 268 -63l103 139l145 -110l-102 -136q164 -174 163 -389q0 -248 -165.5 -422t-413.5 -174q-123 0 -273 62l-108 -146l-141 109l106 145l-14 15q-78 94 -103 147q-53 119 -53 242zM254 551q0 -113 78 -207l379 512q-76 29 -125 29 q-141 0 -236.5 -96.5t-95.5 -237.5zM477 238q74 -25 111 -25q143 0 240.5 95t97.5 239q0 102 -74 196z" />
<glyph unicode="&#xf9;" horiz-adv-x="1316" d="M35 860v234h391v-592q0 -143 43 -205q61 -94 184 -94q115 0 185 90q47 66 47 215v352h-142v234h392v-861h141v-233h-371v135q-53 -78 -142 -121t-188 -43q-186 0 -303 140q-96 113 -96 317v432h-141zM317 1485l101 221l549 -295l-84 -182z" />
<glyph unicode="&#xfa;" horiz-adv-x="1316" d="M35 860v234h391v-592q0 -143 43 -205q61 -94 184 -94q115 0 185 90q47 66 47 215v352h-142v234h392v-861h141v-233h-371v135q-53 -78 -142 -121t-188 -43q-186 0 -303 140q-96 113 -96 317v432h-141zM317 1407l543 307l109 -219l-566 -266z" />
<glyph unicode="&#xfb;" horiz-adv-x="1316" d="M35 860v234h391v-592q0 -143 43 -205q61 -94 184 -94q115 0 185 90q47 66 47 215v352h-142v234h392v-861h141v-233h-371v135q-53 -78 -142 -121t-188 -43q-186 0 -303 140q-96 113 -96 317v432h-141zM195 1272l354 344h172l354 -344h-282l-158 153l-158 -153h-282z" />
<glyph unicode="&#xfc;" horiz-adv-x="1316" d="M35 860v234h391v-592q0 -143 43 -205q61 -94 184 -94q115 0 185 90q47 66 47 215v352h-142v234h392v-861h141v-233h-371v135q-53 -78 -142 -121t-188 -43q-186 0 -303 140q-96 113 -96 317v432h-141zM328 1198v264h250v-264h-250zM709 1198v264h249v-264h-249z" />
<glyph unicode="&#xfd;" horiz-adv-x="1275" d="M31 860v234h516v-234h-107l195 -534l207 534h-107v234h510v-234h-137l-424 -1026h143v-233h-532v233h137l74 180l-332 846h-143zM305 1407l543 307l108 -219l-565 -266z" />
<glyph unicode="&#xfe;" horiz-adv-x="1378" d="M55 -166h140v1395h-140v233h391v-540q119 184 359 184q231 0 394 -165t163 -398q0 -227 -160 -393t-385 -166q-240 0 -371 170v-320h142v-233h-533v233zM444 545q0 -137 96.5 -233.5t233.5 -96.5q135 0 232.5 96.5t97.5 231.5t-94.5 234.5t-229.5 99.5 q-139 0 -237.5 -96.5t-98.5 -235.5z" />
<glyph unicode="&#xff;" horiz-adv-x="1275" d="M31 860v234h516v-234h-107l195 -534l207 534h-107v234h510v-234h-137l-424 -1026h143v-233h-532v233h137l74 180l-332 846h-143zM315 1198v264h250v-264h-250zM696 1198v264h250v-264h-250z" />
<glyph unicode="&#x152;" horiz-adv-x="2240" d="M-2 737q0 311 221 537.5t531 226.5q307 0 489 -250v211h924v-432h-279v189h-368v-369h415v-219h-415v-385h368v194h279v-440h-924v217q-170 -246 -483 -246q-322 0 -540 222t-218 544zM276 729q0 -197 139.5 -338t336.5 -141q195 0 334 142.5t139 338.5 q0 199 -136.5 346.5t-332.5 147.5q-203 0 -341.5 -145.5t-138.5 -350.5z" />
<glyph unicode="&#x153;" horiz-adv-x="2107" d="M6 551q0 240 173 407.5t415 167.5q156 0 295 -82q88 -49 151 -141l11 -16q72 115 194.5 175t265.5 60q236 0 408 -165.5t172 -399.5l-8 -94h-899q25 -111 113.5 -178.5t205.5 -67.5q160 0 264 117h285q-68 -166 -215 -264.5t-330 -98.5q-141 0 -261 59.5t-195 174.5 q-68 -113 -192 -173.5t-263 -60.5q-246 0 -418 169t-172 411zM246 549q0 -137 101.5 -235.5t240.5 -98.5q141 0 241.5 98.5t100.5 237.5t-101.5 236.5t-242.5 97.5q-139 0 -239.5 -99.5t-100.5 -236.5zM1190 649h631q-41 111 -125 172.5t-201 61.5q-104 0 -190 -67 t-115 -167z" />
<glyph unicode="&#x178;" horiz-adv-x="1409" d="M33 1229v233h565v-233h-135l246 -484l243 484h-139v233h563v-233h-145l-385 -719v-277h160v-233h-596v233h157v277l-387 719h-147zM379 1567v264h250v-264h-250zM760 1567v264h250v-264h-250z" />
<glyph unicode="&#x2c6;" horiz-adv-x="1228" d="M166 1292l354 344h172l355 -344h-283l-158 154l-157 -154h-283z" />
<glyph unicode="&#x2dc;" horiz-adv-x="1105" d="M168 1483q94 76 207 76q57 0 151 -29q88 -31 148 -31q96 0 157 55l121 -165q-104 -92 -229 -93q-59 0 -153.5 31t-133.5 31q-72 0 -137 -60z" />
<glyph unicode="&#x2013;" horiz-adv-x="1064" d="M8 414v248h1049v-248h-1049z" />
<glyph unicode="&#x2014;" horiz-adv-x="2088" d="M8 414v248h2073v-248h-2073z" />
<glyph unicode="&#x2018;" horiz-adv-x="442" d="M92 879v329q0 131 49 193q33 41 70 51t100 10h39v-139l-24 2q-39 0 -59.5 -21.5t-23.5 -44t-3 -63.5v-29h110v-288h-258z" />
<glyph unicode="&#x2019;" horiz-adv-x="444" d="M92 1174v288h260v-329q0 -129 -51 -191q-33 -41 -69.5 -52t-98.5 -11h-39v139l25 -2q39 0 59.5 21.5t23.5 45t3 64.5v27h-113z" />
<glyph unicode="&#x201a;" horiz-adv-x="483" d="M113 0v289h258v-328q0 -133 -49 -192q-33 -41 -71 -52.5t-99 -11.5h-39v139h26q39 0 58.5 21.5t22.5 44t3 63.5v27h-110z" />
<glyph unicode="&#x201c;" horiz-adv-x="823" d="M92 1208q0 47 2 71t13.5 58.5t35.5 63.5q33 39 71 50t99 11h39v-139l-26 2q-39 0 -58.5 -21.5t-22.5 -45t-3 -64.5v-27h110v-288h-260v329zM471 879v329q0 127 51 193q33 41 70 51t100 10h39v-139l-26 2q-39 0 -58.5 -21.5t-22.5 -44t-3 -63.5v-29h110v-288h-260z" />
<glyph unicode="&#x201d;" horiz-adv-x="823" d="M92 1174v288h260v-329q0 -129 -51 -191q-33 -41 -69.5 -52t-98.5 -11h-39v139l25 -2q39 0 59.5 21.5t23.5 45t3 64.5v27h-113zM471 1174v288h260v-329q0 -129 -51 -191q-33 -41 -70 -52t-98 -11h-39v139l25 -2q39 0 59.5 21.5t23.5 45t3 64.5v27h-113z" />
<glyph unicode="&#x201e;" horiz-adv-x="862" d="M113 0v289h258v-330q0 -133 -49 -192q-33 -39 -70 -50.5t-98 -11.5h-39v139l24 -2q39 0 59.5 21.5t23.5 45t3 64.5v27h-112zM492 0v289h258v-328q0 -47 -2.5 -71.5t-13.5 -59.5t-34 -61q-33 -41 -69.5 -52.5t-98.5 -11.5h-38v139h24q39 0 59.5 21.5t23.5 44t3 63.5v27 h-112z" />
<glyph unicode="&#x2022;" horiz-adv-x="1269" d="M309 367v731h652v-731h-652z" />
<glyph unicode="&#x2026;" horiz-adv-x="2088" d="M233 0v289h259v-289h-259zM915 0v289h259v-289h-259zM1597 0v289h258v-289h-258z" />
<glyph unicode="&#x2039;" horiz-adv-x="450" d="M94 451v194l252 291l12 -236l-131 -161l131 -160l-12 -221z" />
<glyph unicode="&#x203a;" horiz-adv-x="450" d="M94 379l129 160l-129 161l10 236l254 -291v-194l-254 -293z" />
<glyph unicode="&#x20ac;" horiz-adv-x="1228" d="M20 578v116h134v49q0 39 2 60h-136v117h144q35 260 165 420.5t347 160.5q205 0 276 -180v147h189v-475h-236q-37 258 -225 258q-205 0 -248 -331h373v-117h-381q-2 -20 -2 -62v-47h383v-116h-375q33 -356 258 -357q213 0 246 260h235q-63 -510 -483 -510 q-109 0 -213 52.5t-180 160.5q-104 150 -131 394h-142z" />
<glyph unicode="&#x2122;" horiz-adv-x="1896" d="M61 1346v116h676v-116h-264v-717h-145v717h-267zM885 629v833h213l237 -588l250 588h209v-833h-129v717l-289 -717h-78l-282 717v-717h-131z" />
<glyph unicode="&#xe000;" horiz-adv-x="1095" d="M0 1095h1095v-1095h-1095v1095z" />
<glyph unicode="&#xfb01;" horiz-adv-x="1146" d="M55 0v233h142v627h-142v234h142v11q0 396 415 396h9v-219h-8q-88 0 -130 -47q-38 -43 -37 -119v-22h533v-861h141v-233h-1065zM446 233h283v627h-283v-627zM729 1198v264h250v-264h-250z" />
<glyph unicode="&#xfb02;" horiz-adv-x="1146" d="M55 0v233h142v627h-142v234h142q2 223 111.5 315t336.5 92h332v-1268h141v-233h-1063zM446 233h281v1049h-53q-125 0 -178 -34q-49 -31 -50 -138v-16h144v-234h-144v-627z" />
<glyph unicode="&#xfb03;" horiz-adv-x="1957" d="M61 0v233h142v627h-142v234h142q-2 203 106.5 305t317.5 102v-223h-8q-86 0 -127 -46q-39 -44 -40 -123q0 -8 1 -15h143v-234h-143v-627h143v-233h-535zM723 0v233h141v627h-141v234h141q-2 203 106.5 305t317.5 102v-223h-7q-86 0 -128 -46q-39 -44 -39 -123v-15h143 v-234h-143v-627h143v-233h-534zM1382 0v233h144v627h-142v234h392v-861h141v-233h-535zM1526 1198v264h250v-264h-250z" />
<glyph unicode="&#xfb04;" horiz-adv-x="1964" d="M61 0v233h142v627h-142v234h142q-2 203 106.5 305t317.5 102v-223h-8q-86 0 -127 -46q-39 -44 -40 -123q0 -8 1 -15h143v-234h-143v-627h143v-233h-535zM723 0v233h141v627h-141v234h141q-2 203 106.5 305t317.5 102v-223h-7q-86 0 -128 -46q-39 -44 -39 -123v-15h143 v-234h-143v-627h143v-233h-534zM1380 0v233h152v996h-141v233h391v-1229h141v-233h-543z" />
</font>
</defs>
</svg>
