<?xml version="1.0" standalone="no"?>
<!DOCTYPE svg PUBLIC "-//W3C//DTD SVG 1.1//EN" "http://www.w3.org/Graphics/SVG/1.1/DTD/svg11.dtd" >
<svg xmlns="http://www.w3.org/2000/svg">
<metadata>
This is a custom SVG webfont generated by Font Squirrel.
Copyright   : Copyright  1985 1987 1997 1998 2001 Adobe Systems Incorporated  All Rights Reserved Revised kerning Copyright 2010 International Typeface Corporation
Designer    : Herb Lubalin
Foundry     : ITC
Foundry URL : httpwwwitcfontscom
</metadata>
<defs>
<font id="LubalinforIBMBook" horiz-adv-x="1656" >
<font-face units-per-em="2048" ascent="1473" descent="-575" />
<missing-glyph horiz-adv-x="569" />
<glyph unicode=" "  horiz-adv-x="569" />
<glyph unicode="&#x09;" horiz-adv-x="569" />
<glyph unicode="&#xa0;" horiz-adv-x="569" />
<glyph unicode="!" horiz-adv-x="634" d="M248 0v223h141v-223h-141zM248 375v1087h141v-1087h-141z" />
<glyph unicode="&#x22;" horiz-adv-x="778" d="M182 1462h144l-25 -465h-96zM453 1462h143l-23 -465h-98z" />
<glyph unicode="#" horiz-adv-x="1193" d="M111 532v95h309l31 239h-285v97h301l70 499h96l-68 -499h248l72 499h94l-68 -499h269v-97h-287l-29 -239h264v-95h-282l-74 -532h-96l74 532h-250l-74 -532h-96l71 532h-290zM518 627h248l31 239h-248z" />
<glyph unicode="$" horiz-adv-x="1079" d="M92 1102q0 158 110.5 267.5t268.5 119.5v201h125v-201q152 -35 209 -148v119h117v-346h-117q0 82 -62.5 153.5t-146.5 90.5v-539q182 -27 297 -139.5t115 -290.5q0 -172 -120 -289.5t-292 -132.5v-190h-125v190q-88 29 -142.5 64t-99.5 102v-133h-116v393h116 q2 -102 71 -181t171 -114v607l-65 20q-147 43 -224 127q-90 103 -90 250zM242 1106q0 -104 62.5 -170t166.5 -90v512q-94 -4 -161.5 -79t-67.5 -173zM596 98q113 14 187.5 94t74.5 195t-72.5 189.5t-189.5 101.5v-580z" />
<glyph unicode="%" horiz-adv-x="1687" d="M92 1161q0 139 101.5 235.5t238.5 96.5t236.5 -99.5t99.5 -238.5q0 -141 -98.5 -240.5t-239.5 -99.5q-143 0 -240.5 101.5t-97.5 244.5zM211 1161q0 -94 63.5 -160.5t157.5 -66.5q92 0 155.5 65.5t63.5 157.5q0 88 -64.5 152.5t-152.5 64.5q-90 0 -156.5 -61.5 t-66.5 -151.5zM463 0l649 1462h117l-647 -1462h-119zM918 319q0 139 101 235.5t238 96.5q139 0 238.5 -99t99.5 -239q0 -141 -98 -240.5t-240 -99.5q-143 0 -241 101.5t-98 244.5zM1038 319q0 -94 63.5 -159.5t156 -65.5t156 64.5t63.5 156.5q0 90 -64.5 153.5t-152.5 63.5 q-90 0 -156 -61.5t-66 -151.5z" />
<glyph unicode="&#x26;" horiz-adv-x="1419" d="M41 397q0 262 344 434l-29 27q-88 82 -129 147.5t-41 161.5q0 141 100.5 237.5t243.5 96.5q137 0 237.5 -95t100.5 -232q0 -215 -282 -355l325 -311l193 416h264v-127h-178l-182 -385l350 -340l-94 -95l-334 326q-80 -162 -185.5 -247t-269.5 -85q-178 0 -306 124 t-128 302zM186 401q0 -125 87 -214t212 -89q72 0 127.5 22.5t96.5 70t66.5 90.5t58.5 114l-359 344q-289 -127 -289 -338zM322 1171q0 -51 24.5 -98t42.5 -65l74 -72l39 -35q68 33 112.5 61.5t86.5 83t42 117.5q0 88 -60 151.5t-151 63.5q-88 0 -149 -59.5t-61 -147.5z" />
<glyph unicode="'" horiz-adv-x="555" d="M207 1462h143l-24 -465h-97z" />
<glyph unicode="(" horiz-adv-x="847" d="M223 598q0 305 174 551q164 236 367 313v-162q-182 -115 -285.5 -301t-103.5 -399q0 -215 104.5 -405.5t284.5 -300.5v-166q-246 115 -393.5 354.5t-147.5 515.5z" />
<glyph unicode=")" horiz-adv-x="849" d="M84 1462q205 -82 367 -313q174 -246 174 -551q0 -276 -147.5 -516t-393.5 -354v166q180 111 284.5 301t104.5 405q0 213 -103.5 399.5t-285.5 300.5v162z" />
<glyph unicode="*" horiz-adv-x="1069" d="M162 1149v86h207l-113 176l74 47l110 -186l107 190l76 -43l-109 -184l209 4v-86h-209l107 -170l-74 -45l-105 178l-98 -184l-74 41l103 180z" />
<glyph unicode="+" horiz-adv-x="1275" d="M117 670v125h456v456h127v-456h457v-125h-457v-457h-127v457h-456z" />
<glyph unicode="," horiz-adv-x="602" d="M117 -199l151 377h129l-151 -377h-129z" />
<glyph unicode="-" horiz-adv-x="630" d="M61 467v135h508v-135h-508z" />
<glyph unicode="." horiz-adv-x="591" d="M184 0v223h142v-223h-142z" />
<glyph unicode="/" horiz-adv-x="1239" d="M66 -399l911 1861h110l-913 -1861h-108z" />
<glyph unicode="0" horiz-adv-x="1230" d="M104 508v457q0 227 132 366q158 170 378 170q211 0 361 -149q150 -147 149 -387v-457q0 -225 -129 -369q-158 -168 -381 -168q-207 0 -360 150q-150 147 -150 387zM250 508q0 -164 74 -260q104 -143 290 -144q88 0 168 40t131 110q66 94 66 254v455q0 168 -72 260 q-104 143 -293 143q-88 0 -167.5 -40t-129.5 -112q-68 -94 -67 -251v-455z" />
<glyph unicode="1" horiz-adv-x="677" d="M16 1346v116h426v-1335h193v-127h-529v127h193v1219h-283z" />
<glyph unicode="2" horiz-adv-x="1171" d="M109 0v127l618 602q57 55 88 91t59.5 96.5t28.5 123.5q0 135 -93 227.5t-228 92.5q-143 0 -237 -103q-86 -94 -86 -222q0 -11 1 -23h-141q0 11 -1 22q0 190 131 325q138 142 343 142q84 0 171 -34.5t148 -92.5q135 -135 136 -338q0 -88 -37 -166.5t-77 -124t-120 -122.5 l-516 -496h612v227h131v-354h-931z" />
<glyph unicode="3" horiz-adv-x="1138" d="M78 418h149q10 -131 102.5 -223.5t221.5 -92.5q141 0 236.5 99.5t95.5 240.5q0 139 -104.5 232.5t-246.5 93.5h-73v115h69q121 0 191 55q88 70 88 188q0 109 -70.5 180.5t-177.5 71.5q-96 0 -165.5 -67.5t-74.5 -163.5h-137q2 152 116 253t267 101q156 0 267.5 -101.5 t111.5 -256.5q0 -104 -51 -189.5t-145 -122.5q129 -41 207.5 -152.5t78.5 -248.5q0 -193 -139 -326t-330 -133q-199 0 -338 125t-149 322z" />
<glyph unicode="4" horiz-adv-x="1212" d="M63 358v119l687 985h176v-985h213v-119h-213v-231h192v-127h-526v127h190v231h-719zM225 477h557v811z" />
<glyph unicode="5" horiz-adv-x="1206" d="M74 397h151q25 -129 127.5 -211t233.5 -82q154 0 266.5 106.5t112.5 258.5q0 158 -107.5 266.5t-267.5 108.5q-197 0 -305 -154l-129 31l135 741h723v-127h-606l-93 -471q131 109 306 109q203 0 347 -145.5t144 -348.5q0 -217 -153.5 -362.5t-370.5 -145.5 q-197 0 -339 118t-175 308z" />
<glyph unicode="6" horiz-adv-x="1198" d="M84 500q0 154 119 331l430 631h162l-375 -547q102 70 213 70q201 0 341 -144.5t140 -344.5q0 -219 -146.5 -372t-363.5 -153q-219 0 -369.5 155t-150.5 374zM225 489q0 -156 109.5 -266t265.5 -110q154 0 264.5 108.5t110.5 261.5q0 156 -108.5 268.5t-266.5 112.5 q-156 0 -265.5 -110.5t-109.5 -264.5z" />
<glyph unicode="7" horiz-adv-x="1015" d="M104 1071v391h889v-137l-600 -1325h-160l613 1335h-600v-264h-142z" />
<glyph unicode="8" horiz-adv-x="1142" d="M104 414q0 135 79 244.5t206 152.5q-96 41 -151.5 124t-55.5 189q0 164 116 270.5t282 106.5q150 0 260 -106.5t110 -255.5q0 -223 -198 -320q125 -41 205.5 -151.5t80.5 -241.5q0 -193 -137 -324t-330 -131q-195 0 -331 126.5t-136 316.5zM248 422q0 -135 94 -228.5 t227 -93.5t225.5 94.5t92.5 227.5q0 131 -94.5 225t-227.5 94q-131 0 -224 -94t-93 -225zM315 1122.5q0 -104.5 73 -179.5t177.5 -75t178 75t73.5 177q0 104 -72.5 179t-177 75t-178.5 -73.5t-74 -178z" />
<glyph unicode="9" horiz-adv-x="1206" d="M84 975q0 215 153.5 370.5t368.5 155.5q217 0 366.5 -155.5t149.5 -370.5q0 -168 -118 -344l-422 -631h-179l377 541q-109 -68 -207 -68q-203 0 -346 149.5t-143 352.5zM227 985q0 -160 109.5 -272.5t269.5 -112.5q158 0 265.5 113.5t107.5 271.5q0 152 -109.5 262.5 t-261.5 110.5q-156 0 -268.5 -108.5t-112.5 -264.5z" />
<glyph unicode=":" horiz-adv-x="671" d="M266 0v223h142v-223h-142zM266 750v223h142v-223h-142z" />
<glyph unicode=";" horiz-adv-x="616" d="M117 -199l151 377h129l-151 -377h-129zM264 750v223h131v-223h-131z" />
<glyph unicode="&#x3c;" horiz-adv-x="1337" d="M115 674v119l1106 507v-129l-963 -440l963 -432v-129z" />
<glyph unicode="=" horiz-adv-x="1277" d="M119 518v125h1040v-125h-1040zM119 823v125h1040v-125h-1040z" />
<glyph unicode="&#x3e;" horiz-adv-x="1337" d="M115 170v129l962 432l-962 440v129l1106 -507v-119z" />
<glyph unicode="?" horiz-adv-x="1132" d="M102 1053q-2 188 131.5 324t323.5 136q188 0 323.5 -131t135.5 -319q0 -82 -30 -149.5t-62.5 -103.5t-106.5 -105q-86 -82 -129 -158t-47 -178h-143q0 131 51 224t160 191q59 53 84.5 81t50 80t24.5 114q0 129 -92 220t-221 91t-219 -94t-90 -223h-144zM498 0v223h143 v-223h-143z" />
<glyph unicode="@" horiz-adv-x="1669" d="M113 731q0 319 244.5 544.5t576.5 225.5q291 0 501 -177t210 -452q0 -215 -111 -358q-61 -80 -153.5 -133t-188.5 -53q-121 0 -127 123q-115 -133 -287 -134q-137 0 -223 102.5t-86 239.5q0 193 142.5 349.5t336.5 156.5q84 0 151.5 -43t92.5 -118l33 100h96l-154 -524 q-23 -72 -22 -105q0 -70 76 -69q57 0 121.5 38.5t105.5 87.5q117 127 117 336q0 229 -179 392q-184 164 -458 163q-289 0 -506 -194q-221 -203 -221 -498q0 -301 212 -491.5t527 -190.5q168 0 325.5 67.5t260.5 190.5l39 -59q-111 -137 -274 -207t-351 -70 q-154 0 -310.5 54.5t-269.5 148.5q-119 102 -183 249.5t-64 307.5zM569 653q0 -104 62.5 -174.5t169.5 -70.5q102 0 184 69q57 51 98 160q63 184 64 262q0 82 -57.5 131t-143.5 49q-158 0 -267.5 -135t-109.5 -291z" />
<glyph unicode="A" d="M0 0v135h182l531 1192h-195v135h383l574 -1327h182v-135h-537v135h191l-146 336h-678l-149 -336h184v-135h-522zM530 592h592l-293 704z" />
<glyph unicode="B" horiz-adv-x="1220" d="M61 0v135h187v1192h-187v135h603q188 0 282 -71q143 -109 144 -289q0 -102 -55.5 -188.5t-147.5 -131.5q127 -47 199.5 -149.5t72.5 -237.5q0 -180 -127 -297q-66 -59 -142.5 -78.5t-189.5 -19.5h-639zM395 135h252q188 0 264 49q100 63 101 230q0 154 -117 235 q-37 27 -86 39t-83 14.5t-95 2.5h-236v-570zM395 831h226q61 0 87.5 2.5t69.5 15.5t78 42q86 72 86 194q0 131 -96 201q-14 10 -27.5 17.5t-32 11.5t-28.5 7t-34 4t-31 1h-35h-31h-232v-496z" />
<glyph unicode="C" horiz-adv-x="1509" d="M0 743q0 307 229 547q96 100 236.5 155.5t296.5 55.5q315 0 506 -211v172h135v-356h-135q-80 119 -216.5 183.5t-287.5 64.5q-258 0 -437.5 -177.5t-179.5 -433.5t177.5 -440t435.5 -184q154 0 289 69.5t223 194.5h164q-92 -188 -275.5 -300t-396.5 -112 q-150 0 -292 59.5t-249 164.5q-223 220 -223 548z" />
<glyph unicode="D" horiz-adv-x="1460" d="M61 0v135h189v1192h-189v135h652q162 0 284.5 -45t235.5 -153q217 -213 217 -537q0 -299 -209 -520q-109 -113 -234.5 -160t-293.5 -47h-652zM397 135h287q145 0 251.5 34t194.5 128q80 84 126.5 199.5t46.5 232.5q0 127 -48.5 247t-136.5 204q-92 86 -189.5 116.5 t-238.5 30.5h-293v-1192z" />
<glyph unicode="E" horiz-adv-x="1193" d="M61 0v135h187v1192h-187v135h1031v-377h-148v242h-549v-528h566v-121h-566v-543h549v242h148v-377h-1031z" />
<glyph unicode="F" horiz-adv-x="1165" d="M61 0v135h187v1192h-187v135h1033v-381h-148v246h-551v-532h557v-121h-557v-539h189v-135h-523z" />
<glyph unicode="G" horiz-adv-x="1636" d="M0 741q0 158 58.5 296.5t158.5 234.5q242 229 555 229q150 0 289 -60.5t235 -168.5v190h136v-366h-136q-106 129 -239 192q-131 68 -289 68q-258 0 -439.5 -178.5t-181.5 -436.5t178.5 -440t438.5 -182q209 0 371.5 120.5t216.5 319.5h-734v127h895v-686h-135v340 q-90 -174 -256 -271.5t-364 -97.5q-190 0 -370.5 102.5t-274.5 266.5q-113 194 -113 401z" />
<glyph unicode="H" horiz-adv-x="1517" d="M61 0v135h187v1192h-187v135h523v-135h-189v-530h727v530h-186v135h520v-135h-186v-1192h186v-135h-520v135h186v547h-727v-547h189v-135h-523z" />
<glyph unicode="I" horiz-adv-x="643" d="M61 0v135h187v1192h-187v135h521v-135h-187v-1192h187v-135h-521z" />
<glyph unicode="J" horiz-adv-x="1001" d="M10 336h154q10 -96 75.5 -161.5t161.5 -65.5q115 0 191 96q27 33 40 79t14 73.5t1 88.5v881h-188v135h522v-135h-186v-911q0 -102 -15.5 -167t-66.5 -132q-111 -145 -316 -146q-160 0 -271.5 103.5t-115.5 261.5z" />
<glyph unicode="K" horiz-adv-x="1447" d="M61 0v135h187v1192h-187v135h521v-135h-187v-543l602 543h-163v135h528v-135h-176l-629 -563l668 -629h172v-135h-537v135h170l-635 602v-602h187v-135h-521z" />
<glyph unicode="L" horiz-adv-x="1083" d="M61 0v135h187v1192h-187v135h521v-135h-187v-1192h479v242h148v-377h-961z" />
<glyph unicode="M" horiz-adv-x="2050" d="M61 0v135h187v1192h-187v135h410l530 -1241l582 1241h406v-135h-189v-1192h189v-135h-525v135h189v1139l-598 -1274h-115l-545 1270v-1135h193v-135h-527z" />
<glyph unicode="N" horiz-adv-x="1648" d="M61 0v135h187v1192h-187v135h336l877 -1229v1094h-187v135h521v-135h-187v-1327h-151l-875 1223v-1088h189v-135h-523z" />
<glyph unicode="O" horiz-adv-x="1538" d="M0 735q0 319 225.5 542.5t546.5 223.5q315 0 540.5 -222t225.5 -534q0 -322 -223 -548t-542.5 -226t-546 223.5t-226.5 540.5zM147 739q0 -258 181.5 -439t441.5 -181v-2q258 2 439.5 184t181.5 438q0 252 -181.5 433.5t-437.5 181.5q-258 0 -441.5 -180.5t-183.5 -434.5 z" />
<glyph unicode="P" horiz-adv-x="1208" d="M61 0v135h187v1192h-187v135h598q211 0 340 -94q80 -59 124 -151.5t44 -192.5q0 -195 -141 -330q-72 -70 -153.5 -93t-198.5 -23h-279v-443h187v-135h-521zM395 713h264q166 0 248 67q113 94 113 240q0 143 -117 237q-92 70 -246 70h-262v-614z" />
<glyph unicode="Q" horiz-adv-x="1703" d="M0 739q0 315 222 538.5t538 223.5q322 0 548 -223t226 -541q0 -154 -58.5 -297t-168.5 -243q135 -88 260 -103v164h116v-299h-13q-246 0 -458 150q-205 -137 -448 -138q-322 0 -543 224.5t-221 543.5zM147 743q0 -63 31 -168q164 53 316 54q201 0 360.5 -86t337.5 -250 q195 176 194 436q0 262 -180 443.5t-442 181.5q-254 0 -435.5 -179.5t-181.5 -431.5zM213 455q76 -154 226.5 -245t322.5 -91q195 0 334 92l-41 35q-164 143 -267 190q-147 72 -299 72q-145 0 -276 -53z" />
<glyph unicode="R" horiz-adv-x="1320" d="M61 0v135h189v1192h-189v135h633q123 0 209 -21.5t164 -86.5q166 -141 166 -369q0 -186 -128 -318t-314 -132l305 -400h194v-135h-284l-453 631h55q176 0 248 24q35 12 66 31q76 47 119.5 125t43.5 168q0 164 -110 264q-57 53 -123 68.5t-168 15.5h-287v-1192h174v-135 h-510z" />
<glyph unicode="S" horiz-adv-x="1050" d="M82 1112q0 129 76 231q57 78 152.5 118t201.5 40q92 0 173 -41t116 -117v119h123v-350h-123q-14 121 -94 190.5t-197 69.5q-115 0 -198 -71.5t-83 -184.5q0 -131 97 -203q57 -43 243 -86q205 -47 293 -122q137 -113 137 -297q0 -160 -84 -265q-135 -172 -364 -172 q-219 0 -332 172v-143h-123v393h123q14 -131 102.5 -210t223.5 -79q127 0 217 82t90 207q0 61 -20.5 109.5t-48 78t-78 53t-90.5 36t-103 28.5q-10 2 -42 10.5t-43 12.5t-38 11t-42 13.5l-36.5 16.5t-40.5 21l-37 24q-151 110 -151 305z" />
<glyph unicode="T" horiz-adv-x="1179" d="M72 1071v391h1036v-391h-127v256h-317v-1192h186v-135h-520v135h186v1192h-317v-256h-127z" />
<glyph unicode="U" horiz-adv-x="1368" d="M20 1327v135h510v-135h-176v-807q0 -182 62 -272q92 -129 268 -129q162 0 254 112q76 96 76 287v809h-176v135h510v-135h-187v-842q0 -225 -117 -360q-137 -154 -358 -154t-358 150q-72 80 -96.5 169t-24.5 214v823h-187z" />
<glyph unicode="V" horiz-adv-x="1597" d="M10 1327v135h522v-135h-182l451 -1122l459 1122h-187v135h514v-135h-176l-537 -1327h-155l-524 1327h-185z" />
<glyph unicode="W" horiz-adv-x="2101" d="M10 1327v135h522v-135h-190l313 -1102l342 1237h117l342 -1235l307 1100h-196v135h524v-135h-184l-369 -1327h-158l-323 1174l-330 -1174h-154l-385 1327h-178z" />
<glyph unicode="X" horiz-adv-x="1505" d="M41 0v135h182l447 617l-420 575h-176v135h524v-135h-178l338 -469l334 469h-187v135h527v-135h-170l-418 -575l450 -617h170v-135h-524v135h186l-368 508l-369 -508h178v-135h-526z" />
<glyph unicode="Y" horiz-adv-x="1380" d="M10 1327v135h510v-135h-180l362 -696l345 696h-189v135h512v-135h-174l-420 -835v-357h187v-135h-523v135h189v357l-445 835h-174z" />
<glyph unicode="Z" horiz-adv-x="1142" d="M82 0v121l760 1206h-609v-244h-127v379h916v-116l-762 -1211h684v244h127v-379h-989z" />
<glyph unicode="[" horiz-adv-x="1015" d="M373 -264v1726h461v-131h-310v-1458h310v-137h-461z" />
<glyph unicode="\" horiz-adv-x="968" d="M115 1462h141l610 -1462h-137z" />
<glyph unicode="]" horiz-adv-x="1011" d="M180 -127h307v1458h-307v131h459v-1726h-459v137z" />
<glyph unicode="^" horiz-adv-x="1392" d="M133 356l504 1106h115l508 -1106h-127l-441 959l-434 -959h-125z" />
<glyph unicode="_" horiz-adv-x="1064" d="M20 -154h1024v-102h-1024v102z" />
<glyph unicode="`" horiz-adv-x="1198" d="M305 1493l57 119l500 -291l-51 -102z" />
<glyph unicode="a" horiz-adv-x="1386" d="M16 532q0 72 15.5 134.5t29 89t45.5 84.5q66 117 193 185.5t272 68.5q289 0 441 -254v235h313v-127h-178v-821h178v-127h-313v223q-147 -252 -439 -252q-147 0 -274 67.5t-197 184.5q-86 142 -86 290v19zM152 530q0 -174 125.5 -301t302.5 -127q182 0 308 126t126 307 q0 176 -126 301t-302 125q-178 0 -306 -126.5t-128 -304.5z" />
<glyph unicode="b" horiz-adv-x="1370" d="M51 0v127h180v1208h-180v127h316v-626q68 121 179 189.5t247 68.5q236 0 399.5 -164t163.5 -400q0 -162 -90 -307q-61 -100 -188.5 -176t-268.5 -76q-139 0 -257 65.5t-185 186.5v-223h-316zM360 530q0 -180 127 -301.5t310 -121.5q176 0 300 125.5t124 304.5 q0 174 -125 297.5t-301 123.5q-184 0 -309.5 -123t-125.5 -305z" />
<glyph unicode="c" horiz-adv-x="1165" d="M14 526q0 233 158 396q168 172 393 172q223 0 377 -172v153h127v-323h-127q-59 96 -157.5 151t-211.5 55q-178 0 -300.5 -125.5t-122.5 -304t125.5 -300.5t308.5 -122q117 0 219 61.5t149 168.5h152q-59 -166 -206.5 -265.5t-326.5 -99.5q-227 0 -392 164t-165 391z" />
<glyph unicode="d" horiz-adv-x="1355" d="M14 537q0 225 163 391t386 166q141 0 262 -71t185 -196v508h-181v127h316v-1335h180v-127h-315v227q-70 -121 -185.5 -188.5t-255.5 -67.5q-129 0 -260 73t-200 183q-95 150 -95 310zM150 528q0 -178 128 -304t306 -126q180 0 305 128t125 311q0 178 -126 303t-304 125 q-180 0 -307 -128.5t-127 -308.5z" />
<glyph unicode="e" horiz-adv-x="1146" d="M14 526q0 231 161 399.5t392 168.5q240 0 403 -164t163 -402v-41h-983q8 -166 132 -280.5t289 -114.5q119 0 217.5 54.5t155.5 154.5h143q-68 -150 -207 -240t-305 -90q-231 0 -396 163t-165 392zM150 598h856q-23 164 -149 268.5t-292 104.5q-154 0 -275.5 -109.5 t-139.5 -263.5z" />
<glyph unicode="f" horiz-adv-x="645" d="M72 0v127h182v825h-182v131h180v17q2 80 6 118.5t27.5 94t70.5 96.5q88 82 258 92v-121q-92 -6 -149 -53q-35 -27 -52.5 -65.5t-19.5 -66.5t-4 -85v-27h184v-131h-184v-825h184v-127h-501z" />
<glyph unicode="g" horiz-adv-x="1382" d="M14 535q0 180 92 311q82 117 206 182.5t263 65.5q137 0 254 -66.5t177 -181.5v229h315v-127h-180v-801q0 -137 -27 -231t-106 -182q-164 -178 -418 -178q-168 0 -309.5 87t-192.5 240h156q49 -98 145 -154.5t209 -56.5q176 0 297 131q66 68 88.5 140.5t22.5 177.5v115 q-63 -125 -179 -195t-260 -70q-127 0 -268 72t-205 193q-80 152 -80 299zM150 530q0 -178 129 -305t307 -127t304 129t126 307.5t-127 306.5t-305 128q-180 0 -307 -129.5t-127 -309.5z" />
<glyph unicode="h" horiz-adv-x="1335" d="M41 0v127h180v1208h-180v127h315v-588q55 102 148.5 161t208.5 59q193 0 321 -152q63 -76 82 -159t19 -210v-446h180v-127h-496v127h180v391v37v40q0 9 -1 35.5t-3 39t-5 35t-8 36.5l-12 33q-7 18 -18 35q-41 72 -113.5 113t-154.5 41q-150 0 -244 -107 q-39 -45 -58.5 -97t-22.5 -92t-3 -112v-428h181v-127h-496z" />
<glyph unicode="i" horiz-adv-x="602" d="M72 0v127h184v821h-180v127h315v-948h180v-127h-499zM256 1251v211h135v-211h-135z" />
<glyph unicode="j" horiz-adv-x="450" d="M-20 -281q47 8 81.5 24.5t55 45.5t33 51.5t16.5 67.5t5 68.5t1 76.5v27v868h-180v127h315v-1055q0 -195 -70.5 -295t-256.5 -135v129zM172 1251v211h135v-211h-135z" />
<glyph unicode="k" horiz-adv-x="1218" d="M51 0v127h185v1208h-185v127h320v-866l395 352h-162v127h506v-127h-176l-404 -366l453 -455h195v-127h-529v127h152l-430 434v-434h164v-127h-484z" />
<glyph unicode="l" horiz-adv-x="587" d="M51 0v127h193v1208h-181v127h316v-1335h178v-127h-506z" />
<glyph unicode="m" horiz-adv-x="2054" d="M72 0v127h180v821h-180v127h315v-186q47 96 132 150.5t196 54.5q227 0 340 -205l22 -41q43 111 145.5 178.5t219.5 67.5q279 0 381 -246q31 -74 30 -240v-481h181v-127h-496v127h180v451q0 209 -65 282q-90 102 -229.5 102.5t-227.5 -100.5q-47 -55 -61.5 -109.5 t-14.5 -142.5v-483h180v-127h-495v127h180v455q0 182 -65 278q-70 102 -230 103q-141 0 -225 -101q-78 -92 -78 -266v-469h180v-127h-495z" />
<glyph unicode="n" horiz-adv-x="1378" d="M72 0v127h180v821h-180v127h315v-188q49 98 147.5 152.5t213.5 54.5q102 0 211.5 -54.5t158.5 -152.5q59 -119 60 -281v-479h180v-127h-496v127h180v430q0 184 -51 272q-76 131 -280 132q-156 0 -252 -113q-47 -55 -59.5 -116.5t-12.5 -158.5v-446h180v-127h-495z" />
<glyph unicode="o" horiz-adv-x="1155" d="M14 530q0 236 166 400t402 164q229 0 394 -163t165 -390q0 -236 -164 -403t-399 -167q-233 0 -398.5 164t-165.5 395zM150 534.5q0 -176.5 124.5 -303.5t303 -127t303.5 126t125 302.5t-124 302.5t-302.5 126t-304 -125t-125.5 -301.5z" />
<glyph unicode="p" horiz-adv-x="1376" d="M51 -272h180v1220h-180v127h316v-239q145 258 444 258q139 0 264 -64.5t199 -193.5q88 -154 88 -304q0 -233 -161 -397t-390 -164q-139 0 -260 69t-184 187v-499h180v-127h-496v127zM365 535q0 -180 125.5 -308.5t304.5 -128.5q176 0 304 128t128 306q0 195 -126 320 q-116 115 -272 115h-26q-184 -10 -311 -126t-127 -306z" />
<glyph unicode="q" horiz-adv-x="1394" d="M14 530q0 166 78 304q61 111 189.5 185.5t283.5 74.5q143 0 258 -68t185 -192v241h315v-127h-180v-1220h180v-127h-496v127h181v497q-61 -119 -183.5 -186.5t-259.5 -67.5q-231 0 -391 163t-160 396zM150 532q0 -180 128 -307t304 -127q178 0 304 127q128 129 128 313 q0 165 -128 296q-130 133 -311 133q-16 1 -32 1q-161 0 -272 -113q-121 -124 -121 -323z" />
<glyph unicode="r" horiz-adv-x="772" d="M72 0v127h180v821h-180v127h315v-219q35 106 128 160.5t216 58.5v-127q-344 -29 -344 -389v-432h180v-127h-495z" />
<glyph unicode="s" horiz-adv-x="882" d="M92 0v307h111q8 -98 87 -162.5t187 -64.5q94 0 164 57.5t70 147.5q0 43 -15.5 75.5t-35 51t-58.5 34t-64.5 21.5t-72.5 16q-174 39 -242 80q-127 82 -127 228q0 113 56 184q45 57 123.5 88t160.5 31q168 0 244 -119v100h111v-272h-111q-2 82 -70 131q-66 49 -151.5 49 t-148 -49t-62.5 -133q0 -47 20.5 -82t59.5 -56.5t72.5 -31.5t84.5 -21q166 -33 244 -80q133 -76 133 -235q0 -76 -47 -166q-37 -72 -127 -115t-186 -43q-205 0 -299 158v-129h-111z" />
<glyph unicode="t" horiz-adv-x="667" d="M0 948v127h207v387h135v-387h238v-127h-238v-821h254v-127h-389v948h-207z" />
<glyph unicode="u" horiz-adv-x="1329" d="M20 948v127h316v-579q0 -63 3 -101.5t18.5 -89.5t45.5 -92q88 -116 230 -116q14 0 29 1q154 12 241 117q51 59 64.5 118.5t13.5 158.5v456h-180v127h315v-948h182v-127h-317v180q-51 -98 -147.5 -153.5t-210.5 -55.5q-113 0 -213.5 61.5t-153.5 147.5q-55 90 -55 264v504 h-181z" />
<glyph unicode="v" horiz-adv-x="1302" d="M10 948v127h494v-127h-164l313 -786l322 786h-172v127h489v-127h-172l-393 -948h-152l-385 948h-180z" />
<glyph unicode="w" horiz-adv-x="1839" d="M10 948v127h488v-127h-170l270 -772l276 795h113l252 -785l274 762h-174v127h490v-127h-180l-340 -948h-142l-239 743l-273 -743h-139l-326 948h-180z" />
<glyph unicode="x" horiz-adv-x="1251" d="M51 0v127h176l305 412l-307 409h-168v127h482v-127h-148l234 -311l229 311h-156v127h484v-127h-166l-301 -409l307 -412h178v-127h-489v127h143l-229 315l-230 -315h144v-127h-488z" />
<glyph unicode="y" horiz-adv-x="1286" d="M10 948v127h492v-127h-170l303 -786l321 786h-168v127h488v-127h-172l-512 -1220h176v-127h-498v127h181l110 264l-379 956h-172z" />
<glyph unicode="z" horiz-adv-x="1021" d="M113 0v115l616 833h-463v-207h-121v334h754v-125l-604 -823h514v199h121v-326h-817z" />
<glyph unicode="{" horiz-adv-x="888" d="M248 610q55 10 104 45q29 23 42.5 54.5t14.5 52t1 67.5v334q0 172 62 240q56 60 199 60q17 0 36 -1q-88 -25 -124 -79t-36 -148v-352q0 -121 -35 -185.5t-143 -87.5q104 -23 141 -83t37 -173v-377q0 -98 33.5 -149t126.5 -80h-20q-133 0 -202 51q-76 55 -75 215v377 q0 39 -1 57.5t-11.5 44t-30.5 50.5q-45 51 -119 67z" />
<glyph unicode="|" horiz-adv-x="491" d="M182 -512v2048h127v-2048h-127z" />
<glyph unicode="}" horiz-adv-x="886" d="M180 1462q19 1 36 1q143 0 198 -60q61 -68 61 -240v-334q0 -47 2 -67.5t15.5 -52t42.5 -54.5q45 -35 102 -45q-74 -16 -119 -67q-20 -25 -30.5 -50.5t-11.5 -44t-1 -57.5v-377q0 -162 -74 -215q-47 -35 -95 -43t-126 -8q90 29 124 80t34 149v377q0 113 37 173.5t141 82.5 q-106 23 -142 88.5t-36 184.5v352q0 94 -35 148t-123 79z" />
<glyph unicode="~" horiz-adv-x="1329" d="M106 631q70 109 141.5 166t178.5 57q88 0 260 -72q186 -72 236 -71q47 0 88 24.5t62.5 50t53.5 74.5l97 -61q-49 -68 -81 -105t-90.5 -70.5t-126 -33.5t-202.5 49l-109 41q-141 53 -192 53q-74 0 -121 -42t-98 -122z" />
<glyph unicode="&#xa1;" horiz-adv-x="634" d="M248 -389v1089h141v-1089h-141zM248 852v223h141v-223h-141z" />
<glyph unicode="&#xa2;" horiz-adv-x="1185" d="M156 727q0 176 116.5 306t290.5 153v192h119v-192q145 -27 231 -129v114h97v-264h-125q-70 117 -203 137v-636q127 35 199 135h151q-43 -109 -137 -178.5t-213 -92.5v-190h-119v190q-172 18 -289.5 149.5t-117.5 305.5zM295 725q0 -117 77 -207t191 -110v636 q-119 -18 -193.5 -108t-74.5 -211z" />
<glyph unicode="&#xa3;" horiz-adv-x="1245" d="M33 678v115h180q-80 111 -80 237q0 188 143.5 326.5t333.5 138.5q213 0 348 -176v141h134v-354h-134q-16 115 -111 187.5t-214 72.5q-147 0 -247.5 -100.5t-100.5 -247.5q0 -129 96 -225h500v-115h-414q82 -82 124 -150.5t42 -158.5q0 -147 -105 -250h174q176 0 261 61 q111 82 110 232q0 43 -14 77h133q12 -35 12 -86q0 -186 -137 -303q-117 -100 -346 -100h-598v119h235q61 33 93 100.5t32 142.5q0 63 -32.5 127t-62.5 95.5t-95 93.5h-260z" />
<glyph unicode="&#xa4;" horiz-adv-x="1187" d="M102 291l113 110q-102 125 -102 293q0 172 102 297l-113 109l82 84l111 -111q131 102 297 103q170 0 295 -103l110 111l82 -84l-108 -109q100 -127 100 -297q0 -156 -100 -293l108 -110l-84 -80l-108 108q-131 -104 -291 -104q-158 0 -301 104l-109 -108zM236 698.5 q0 -147.5 103 -253t250.5 -105.5t254 103.5t106.5 250.5q0 150 -103.5 255.5t-253 105.5t-253.5 -104.5t-104 -252z" />
<glyph unicode="&#xa5;" horiz-adv-x="1032" d="M-59 1335v127h434v-127h-156l309 -706l289 706h-158v127h433v-127h-146l-196 -481h278v-90h-319l-50 -115h369v-92h-407l-29 -74v-356h158v-127h-441v127h158v356l-35 74h-409v92h370l-49 115h-321v90h278l-211 481h-149z" />
<glyph unicode="&#xa6;" horiz-adv-x="491" d="M182 358h127v-716h-127v716zM182 666v716h127v-716h-127z" />
<glyph unicode="&#xa7;" horiz-adv-x="1026" d="M139 57v25l127 -4q-1 -11 -1 -22q0 -95 68 -147q75 -58 189 -59q104 0 175 57.5t71 158.5q0 98 -86 159q-47 31 -172 60q-330 70 -330 317q0 113 67.5 192.5t178.5 106.5q-211 82 -211 266q0 129 94 212t225.5 83t234.5 -71.5t105 -196.5l-120 4q0 74 -64.5 114 t-144.5 40q-88 0 -147.5 -55.5t-59.5 -141.5q0 -143 235 -219q135 -43 189 -84q125 -98 125 -246q0 -96 -58.5 -171t-150.5 -107q94 -31 151.5 -102.5t57.5 -170.5q0 -150 -107.5 -236.5t-261.5 -86.5q-152 0 -265.5 89t-113.5 236zM297 612q0 -90 69.5 -150.5t159.5 -60.5 q100 0 169 57.5t69 155.5q0 80 -71.5 140.5t-153.5 60.5q-94 0 -168 -55.5t-74 -147.5z" />
<glyph unicode="&#xa8;" horiz-adv-x="1245" d="M422 1284v256h141v-256h-141zM682 1284v256h141v-256h-141z" />
<glyph unicode="&#xa9;" horiz-adv-x="1622" d="M55 737q0 317 220.5 540.5t535.5 223.5q309 0 530.5 -222t221.5 -536q0 -324 -220.5 -548t-539.5 -224q-309 0 -528.5 225.5t-219.5 540.5zM158 739q0 -274 191.5 -469.5t461.5 -195.5v4h6q263 0 452 190q191 193 191 465q0 279 -190.5 472.5t-462.5 193.5 q-266 0 -457.5 -195t-191.5 -465zM383 731q0 203 127 335t328 132q131 0 243.5 -65.5t139.5 -184.5l-140 -33q-16 94 -82.5 145.5t-167.5 51.5q-150 0 -231.5 -109.5t-81.5 -265t80 -259t229 -103.5q201 0 271 207l123 -39q-41 -125 -156 -191.5t-254 -66.5 q-193 0 -310.5 124.5t-117.5 321.5z" />
<glyph unicode="&#xaa;" horiz-adv-x="921" d="M72 1163q0 129 69 205q68 74 126.5 103.5t138.5 29.5q162 0 251 -133v117h201v-90h-106v-469h106v-88h-201v116q-39 -63 -106.5 -98t-142.5 -35q-70 0 -146 40t-117 93q-73 98 -73 209zM168 1161q0 -100 71.5 -174t172.5 -74q104 0 175.5 73t71.5 177q0 102 -71.5 174 t-173.5 72q-100 0 -173 -73t-73 -175z" />
<glyph unicode="&#xab;" horiz-adv-x="768" d="M117 494v81l235 351l31 -115l-174 -281l174 -278l-31 -111zM377 494v79l221 330l31 -119l-160 -254l160 -251l-31 -109z" />
<glyph unicode="&#xac;" horiz-adv-x="1552" d="M119 823v125h1315v-631h-123v506h-1192z" />
<glyph unicode="&#xad;" horiz-adv-x="614" d="M53 467v135h508v-135h-508z" />
<glyph unicode="&#xae;" horiz-adv-x="1626" d="M55 739q0 317 222.5 539.5t535.5 222.5t533.5 -224t220.5 -541.5t-223.5 -541t-536.5 -223.5q-311 0 -531.5 226.5t-220.5 541.5zM158 739q0 -279 192.5 -472t466.5 -193v4h6q263 0 451 194q190 197 190 467q0 274 -193.5 467t-463.5 193q-266 0 -457.5 -195t-191.5 -465 zM502 291v911h409q145 0 215 -43q106 -61 107 -207q0 -123 -74 -184t-201 -66l259 -411h-148l-244 411h-196v-411h-127zM629 801h235q49 0 86 5t75 20.5t58.5 49t20.5 85.5q0 47 -19.5 78.5t-55.5 45t-69.5 18.5t-78.5 5h-252v-307z" />
<glyph unicode="&#xaf;" horiz-adv-x="1089" d="M217 1358v112h655v-112h-655z" />
<glyph unicode="&#xb0;" horiz-adv-x="882" d="M135 1200q0 123 89 211q91 90 218 90t217.5 -90t90.5 -217t-90.5 -217t-217.5 -90t-217 90.5t-90 222.5zM217 1194q0 -92 66.5 -158.5t159 -66.5t159 66.5t66.5 158.5t-66.5 158.5t-161.5 66.5q-90 0 -156.5 -66.5t-66.5 -158.5z" />
<glyph unicode="&#xb1;" horiz-adv-x="1275" d="M117 213v125h1040v-125h-1040zM117 795v125h456v331h127v-331h457v-125h-457v-332h-127v332h-456z" />
<glyph unicode="&#xb2;" horiz-adv-x="792" d="M92 600v76l402 362q39 35 58 55.5t37.5 56.5t18.5 75q0 82 -60.5 137t-148.5 55q-98 0 -153.5 -60.5t-55.5 -148.5h-92q0 125 87 209t221 84q123 0 208.5 -79t85.5 -199q0 -53 -23.5 -100.5t-50 -75t-77.5 -72.5l-336 -299h399v137h84v-213h-604z" />
<glyph unicode="&#xb3;" horiz-adv-x="806" d="M92 852h98q6 -78 65.5 -134t143.5 -56q92 0 154.5 59t62.5 145q0 84 -68.5 139.5t-158.5 55.5h-49v69h66q63 0 112 38t49 108q0 66 -46 108.5t-115 42.5q-61 0 -107.5 -40.5t-48.5 -98.5h-90q2 92 76.5 152.5t173.5 60.5q100 0 172.5 -61.5t72.5 -153.5q0 -139 -127 -186 q82 -25 134.5 -91.5t52.5 -150.5q0 -115 -90 -194.5t-215 -79.5q-129 0 -219.5 74.5t-98.5 193.5z" />
<glyph unicode="&#xb4;" horiz-adv-x="1208" d="M338 1323l504 285l61 -117l-516 -268z" />
<glyph unicode="&#xb5;" horiz-adv-x="1411" d="M61 948v127h316v-604q0 -160 76.5 -266.5t248.5 -106.5q18 0 45 4t79.5 26t92 57.5t71.5 110.5t32 175v477h-180v127h315v-948h182v-127h-317v180h-4q-49 -98 -143.5 -153.5t-210.5 -55.5q-160 0 -287 113v-483h-135v1347h-181z" />
<glyph unicode="&#xb6;" horiz-adv-x="1011" d="M45 1096q0 168 125 276q61 53 129 71.5t166 18.5h508v-127h-180v-1599h-107v1599h-168v-1599h-108v995q-154 4 -259.5 107.5t-105.5 257.5z" />
<glyph unicode="&#xb7;" horiz-adv-x="671" d="M266 623v223h142v-223h-142z" />
<glyph unicode="&#xb8;" horiz-adv-x="1198" d="M424 -362h94q20 -59 80 -60q37 0 59.5 24.5t22.5 61.5t-24.5 60.5t-61.5 23.5q-49 0 -74 -37l-78 29l80 242h96l-53 -164q25 12 53 12q68 0 112 -48t44 -118q0 -74 -50 -127t-122 -53t-120 42t-58 112z" />
<glyph unicode="&#xb9;" horiz-adv-x="581" d="M92 1393v69h287v-800h131v-76h-356v76h129v731h-191z" />
<glyph unicode="&#xba;" horiz-adv-x="890" d="M109 1161q0 141 99 240.5t241 99.5q139 0 237 -98t98 -236q0 -141 -98 -242.5t-240 -101.5q-139 0 -238 99.5t-99 238.5zM197 1163.5q0 -104.5 72.5 -178.5t177 -74t177 74t72.5 178q0 102 -72.5 176t-174.5 74q-104 0 -178 -72.5t-74 -177z" />
<glyph unicode="&#xbb;" horiz-adv-x="768" d="M139 279l162 251l-162 254l31 119l223 -330v-79l-223 -324zM385 252l174 278l-174 281l31 115l235 -351v-81l-235 -353z" />
<glyph unicode="&#xbc;" horiz-adv-x="1687" d="M92 1391v71h287v-803h131v-73h-354v73h127v732h-191zM403 0l650 1462h116l-647 -1462h-119zM918 215v72l446 590h113v-590h139v-72h-139v-139h127v-76h-344v76h124v139h-466zM1022 287h362v487z" />
<glyph unicode="&#xbd;" horiz-adv-x="1779" d="M92 1393v69h287v-800h131v-76h-356v76h129v731h-191zM451 0l649 1462h117l-648 -1462h-118zM1065 0v76l401 362q39 35 58.5 55.5t38 56.5t18.5 75q0 82 -60.5 137t-148.5 55q-98 0 -153.5 -60.5t-55.5 -148.5h-92q0 125 87 209t220 84q123 0 209 -79t86 -199 q0 -53 -23.5 -100.5t-50 -75t-77.5 -72.5l-336 -299h399v137h84v-213h-604z" />
<glyph unicode="&#xbe;" horiz-adv-x="1861" d="M92 852h98q6 -78 65.5 -134t143.5 -56q92 0 154.5 59t62.5 145q0 84 -68.5 139.5t-158.5 55.5h-49v69h66q63 0 112 38t49 108q0 66 -46 108.5t-115 42.5q-61 0 -107.5 -40.5t-48.5 -98.5h-90q2 92 76.5 152.5t173.5 60.5q100 0 172.5 -61.5t72.5 -153.5q0 -139 -127 -186 q82 -25 134.5 -91.5t52.5 -150.5q0 -115 -90 -194.5t-215 -79.5q-129 0 -219.5 74.5t-98.5 193.5zM592 0l649 1462h117l-647 -1462h-119zM1092 215v72l446 590h113v-590h139v-72h-139v-139h127v-76h-344v76h125v139h-467zM1196 287h363v485z" />
<glyph unicode="&#xbf;" horiz-adv-x="1173" d="M158 12q0 82 28.5 148.5t61.5 103.5t108 107q84 80 128 155.5t48 180.5h144q2 -131 -50.5 -224.5t-160.5 -191.5q-61 -57 -85 -83t-49.5 -78t-25.5 -116q0 -129 92 -219t221.5 -90t219.5 94.5t90 223.5h143q2 -190 -131 -325.5t-324 -135.5q-188 0 -323 131t-135 319z M532 852v223h144v-223h-144z" />
<glyph unicode="&#xc0;" d="M0 0v135h182l531 1192h-195v135h383l574 -1327h182v-135h-537v135h191l-146 336h-678l-149 -336h184v-135h-522zM530 592h592l-293 704zM541 1880l57 119l500 -291l-51 -102z" />
<glyph unicode="&#xc1;" d="M0 0v135h182l531 1192h-195v135h383l574 -1327h182v-135h-537v135h191l-146 336h-678l-149 -336h184v-135h-522zM530 592h592l-293 704zM541 1710l503 285l62 -117l-516 -268z" />
<glyph unicode="&#xc2;" d="M0 0v135h182l531 1192h-195v135h383l574 -1327h182v-135h-537v135h191l-146 336h-678l-149 -336h184v-135h-522zM438 1651l353 282h79l357 -282h-176l-224 168l-219 -168h-170zM530 592h592l-293 704z" />
<glyph unicode="&#xc3;" d="M0 0v135h182l531 1192h-195v135h383l574 -1327h182v-135h-537v135h191l-146 336h-678l-149 -336h184v-135h-522zM502 1819q31 35 81 57t95 22t127 -34q82 -37 129 -37q92 0 145 67l76 -92q-88 -94 -203 -94q-57 0 -135 36t-112 36q-66 0 -123 -62zM530 592h592l-293 704z " />
<glyph unicode="&#xc4;" d="M0 0v135h182l531 1192h-195v135h383l574 -1327h182v-135h-537v135h191l-146 336h-678l-149 -336h184v-135h-522zM530 592h592l-293 704zM625 1671v256h141v-256h-141zM885 1671v256h141v-256h-141z" />
<glyph unicode="&#xc5;" d="M0 0v135h182l531 1192h-195v135h383l574 -1327h182v-135h-537v135h191l-146 336h-678l-149 -336h184v-135h-522zM530 592h592l-293 704zM604 1796q0 90 64.5 152.5t154.5 62.5q88 0 151.5 -64.5t63.5 -152.5q0 -90 -63.5 -153.5t-151.5 -63.5q-92 0 -155.5 63.5 t-63.5 155.5zM694 1792q0 -53 38 -89t91.5 -36t89 38t35.5 91t-38 89t-89 36q-55 0 -91 -38t-36 -91z" />
<glyph unicode="&#xc6;" horiz-adv-x="2070" d="M0 0v135h186l830 1192h-182v135h1134v-377h-147v242h-545v-528h571v-121h-571v-543h545v242h147v-377h-1026v135h186v348h-538l-254 -348h186v-135h-522zM662 598h466v686z" />
<glyph unicode="&#xc7;" horiz-adv-x="1509" d="M0 743q0 307 229 547q96 100 236.5 155.5t296.5 55.5q315 0 506 -211v172h135v-356h-135q-80 119 -216.5 183.5t-287.5 64.5q-258 0 -437.5 -177.5t-179.5 -433.5t177.5 -440t435.5 -184q154 0 289 69.5t223 194.5h164q-92 -188 -275.5 -300t-396.5 -112q-25 0 -35 2 l-51 -155q25 12 53 12q68 0 112 -48t44 -118q0 -74 -50.5 -127t-122 -53t-119.5 42t-58 112h94q20 -59 80 -60q37 0 59.5 24.5t22.5 61.5t-25 60.5t-61 23.5q-49 0 -74 -37l-78 29l82 246q-233 33 -414 209q-223 220 -223 548z" />
<glyph unicode="&#xc8;" horiz-adv-x="1193" d="M61 0v135h187v1192h-187v135h1031v-377h-148v242h-549v-528h566v-121h-566v-543h549v242h148v-377h-1031zM301 1880l57 119l500 -291l-51 -102z" />
<glyph unicode="&#xc9;" horiz-adv-x="1193" d="M61 0v135h187v1192h-187v135h1031v-377h-148v242h-549v-528h566v-121h-566v-543h549v242h148v-377h-1031zM301 1710l504 285l61 -117l-516 -268z" />
<glyph unicode="&#xca;" horiz-adv-x="1193" d="M61 0v135h187v1192h-187v135h1031v-377h-148v242h-549v-528h566v-121h-566v-543h549v242h148v-377h-1031zM199 1651l352 282h80l356 -282h-176l-223 168l-219 -168h-170z" />
<glyph unicode="&#xcb;" horiz-adv-x="1193" d="M61 0v135h187v1192h-187v135h1031v-377h-148v242h-549v-528h566v-121h-566v-543h549v242h148v-377h-1031zM385 1671v256h141v-256h-141zM645 1671v256h141v-256h-141z" />
<glyph unicode="&#xcc;" horiz-adv-x="643" d="M47 1880l57 119l500 -291l-51 -102zM74 0v135h186v1192h-186v135h520v-135h-186v-1192h186v-135h-520z" />
<glyph unicode="&#xcd;" horiz-adv-x="653" d="M33 1710l504 285l61 -117l-516 -268zM59 0v135h187v1192h-187v135h521v-135h-187v-1192h187v-135h-521z" />
<glyph unicode="&#xce;" horiz-adv-x="598" d="M-96 1651l352 282h80l356 -282h-176l-223 168l-219 -168h-170zM33 0v135h186v1192h-186v135h520v-135h-186v-1192h186v-135h-520z" />
<glyph unicode="&#xcf;" horiz-adv-x="643" d="M61 0v135h187v1192h-187v135h521v-135h-187v-1192h187v-135h-521zM119 1671v256h141v-256h-141zM379 1671v256h141v-256h-141z" />
<glyph unicode="&#xd0;" horiz-adv-x="1480" d="M61 0v135h189v547h-189v115h189v530h-189v135h652q162 0 284.5 -45t235.5 -153q217 -213 217 -537q0 -299 -209 -520q-109 -113 -234.5 -160t-293.5 -47h-652zM397 135h287q145 0 251.5 34t194.5 128q80 84 126.5 199.5t46.5 232.5q0 127 -48.5 247t-136.5 204 q-92 86 -189.5 116.5t-238.5 30.5h-293v-530h336v-115h-336v-547z" />
<glyph unicode="&#xd1;" horiz-adv-x="1648" d="M61 0v135h187v1192h-187v135h336l877 -1229v1094h-187v135h521v-135h-187v-1327h-151l-875 1223v-1088h189v-135h-523zM508 1819q31 35 81 57t95 22t127 -34q82 -37 129 -37q92 0 145 67l76 -92q-88 -94 -203 -94q-57 0 -135 36t-112 36q-66 0 -123 -62z" />
<glyph unicode="&#xd2;" horiz-adv-x="1538" d="M0 735q0 319 225.5 542.5t546.5 223.5q315 0 540.5 -222t225.5 -534q0 -322 -223 -548t-542.5 -226t-546 223.5t-226.5 540.5zM147 739q0 -258 181.5 -439t441.5 -181v-2q258 2 439.5 184t181.5 438q0 252 -181.5 433.5t-437.5 181.5q-258 0 -441.5 -180.5t-183.5 -434.5 zM487 1880l58 119l499 -291l-51 -102z" />
<glyph unicode="&#xd3;" horiz-adv-x="1538" d="M0 735q0 319 225.5 542.5t546.5 223.5q315 0 540.5 -222t225.5 -534q0 -322 -223 -548t-542.5 -226t-546 223.5t-226.5 540.5zM147 739q0 -258 181.5 -439t441.5 -181v-2q258 2 439.5 184t181.5 438q0 252 -181.5 433.5t-437.5 181.5q-258 0 -441.5 -180.5t-183.5 -434.5 zM487 1710l504 285l62 -117l-516 -268z" />
<glyph unicode="&#xd4;" horiz-adv-x="1538" d="M0 735q0 319 225.5 542.5t546.5 223.5q315 0 540.5 -222t225.5 -534q0 -322 -223 -548t-542.5 -226t-546 223.5t-226.5 540.5zM147 739q0 -258 181.5 -439t441.5 -181v-2q258 2 439.5 184t181.5 438q0 252 -181.5 433.5t-437.5 181.5q-258 0 -441.5 -180.5t-183.5 -434.5 zM385 1651l352 282h80l357 -282h-177l-223 168l-219 -168h-170z" />
<glyph unicode="&#xd5;" horiz-adv-x="1538" d="M0 735q0 319 225.5 542.5t546.5 223.5q315 0 540.5 -222t225.5 -534q0 -322 -223 -548t-542.5 -226t-546 223.5t-226.5 540.5zM147 739q0 -258 181.5 -439t441.5 -181v-2q258 2 439.5 184t181.5 438q0 252 -181.5 433.5t-437.5 181.5q-258 0 -441.5 -180.5t-183.5 -434.5 zM449 1819q31 35 81 57t95 22t127 -34q82 -37 129 -37q92 0 145 67l76 -92q-88 -94 -203 -94q-57 0 -135 36t-113 36q-66 0 -123 -62z" />
<glyph unicode="&#xd6;" horiz-adv-x="1538" d="M0 735q0 319 225.5 542.5t546.5 223.5q315 0 540.5 -222t225.5 -534q0 -322 -223 -548t-542.5 -226t-546 223.5t-226.5 540.5zM147 739q0 -258 181.5 -439t441.5 -181v-2q258 2 439.5 184t181.5 438q0 252 -181.5 433.5t-437.5 181.5q-258 0 -441.5 -180.5t-183.5 -434.5 zM571 1671v256h142v-256h-142zM831 1671v256h142v-256h-142z" />
<glyph unicode="&#xd7;" horiz-adv-x="1155" d="M119 365l368 368l-368 369l90 90l369 -369l368 369l90 -90l-368 -369l368 -368l-90 -91l-368 369l-369 -369z" />
<glyph unicode="&#xd8;" horiz-adv-x="1533" d="M0 731q0 324 225.5 547t550.5 223q205 0 412 -129l22 -12l166 203l88 -70l-166 -203q236 -229 236 -559q0 -313 -224.5 -536.5t-539.5 -223.5q-209 0 -379 95l-63 34l-176 -219l-89 72l181 219q-244 227 -244 559zM147 733q0 -238 193 -440l778 950q-178 111 -346 111 q-262 0 -443.5 -181.5t-181.5 -439.5zM426 221q180 -102 338 -102q262 0 442 181t180 441q0 240 -184 430z" />
<glyph unicode="&#xd9;" horiz-adv-x="1368" d="M20 1327v135h510v-135h-176v-807q0 -182 62 -272q92 -129 268 -129q162 0 254 112q76 96 76 287v809h-176v135h510v-135h-187v-842q0 -225 -117 -360q-137 -154 -358 -154t-358 150q-72 80 -96.5 169t-24.5 214v823h-187zM401 1880l58 119l499 -291l-51 -102z" />
<glyph unicode="&#xda;" horiz-adv-x="1368" d="M20 1327v135h510v-135h-176v-807q0 -182 62 -272q92 -129 268 -129q162 0 254 112q76 96 76 287v809h-176v135h510v-135h-187v-842q0 -225 -117 -360q-137 -154 -358 -154t-358 150q-72 80 -96.5 169t-24.5 214v823h-187zM401 1710l504 285l62 -117l-516 -268z" />
<glyph unicode="&#xdb;" horiz-adv-x="1368" d="M20 1327v135h510v-135h-176v-807q0 -182 62 -272q92 -129 268 -129q162 0 254 112q76 96 76 287v809h-176v135h510v-135h-187v-842q0 -225 -117 -360q-137 -154 -358 -154t-358 150q-72 80 -96.5 169t-24.5 214v823h-187zM299 1651l352 282h80l356 -282h-176l-223 168 l-219 -168h-170z" />
<glyph unicode="&#xdc;" horiz-adv-x="1368" d="M20 1327v135h510v-135h-176v-807q0 -182 62 -272q92 -129 268 -129q162 0 254 112q76 96 76 287v809h-176v135h510v-135h-187v-842q0 -225 -117 -360q-137 -154 -358 -154t-358 150q-72 80 -96.5 169t-24.5 214v823h-187zM485 1671v256h142v-256h-142zM745 1671v256h142 v-256h-142z" />
<glyph unicode="&#xdd;" horiz-adv-x="1359" d="M0 1327v135h510v-135h-180l362 -696l344 696h-188v135h512v-135h-174l-420 -835v-357h186v-135h-522v135h188v357l-444 835h-174zM397 1710l504 285l62 -117l-517 -268z" />
<glyph unicode="&#xde;" horiz-adv-x="1187" d="M61 0v135h187v1192h-187v135h521v-135h-187v-147h264q219 0 363.5 -107.5t144.5 -310.5q0 -207 -139 -321.5t-354 -114.5h-279v-191h187v-135h-521zM395 461h264q158 0 259.5 73.5t101.5 223.5q0 141 -104.5 213.5t-258.5 72.5h-262v-583z" />
<glyph unicode="&#xdf;" horiz-adv-x="1198" d="M47 0v127h180v885q0 199 92 317q57 76 146.5 118t185.5 42q166 0 288 -114.5t122 -280.5q0 -113 -56.5 -203t-160.5 -127q150 -18 241 -127t91 -264q0 -176 -116 -291t-294 -115q-106 0 -203 51v132q92 -55 185 -56q119 0 201.5 83t82.5 202q0 63 -30.5 125.5 t-79.5 103.5q-92 72 -252 72h-52l-18 -2v127q15 -1 29 -1q110 0 192 69q92 79 92 208q0 111 -77.5 190t-190.5 79q-137 0 -219 -115q-25 -37 -37 -81t-14 -74.5t-2 -90.5v-989h-326z" />
<glyph unicode="&#xe0;" horiz-adv-x="1392" d="M23 532q0 72 15 134.5t28.5 89t46.5 84.5q66 117 192.5 185.5t272.5 68.5q289 0 440 -254v235h313v-127h-178v-821h178v-127h-313v223q-147 -252 -438 -252q-147 0 -274.5 67.5t-196.5 184.5q-86 142 -87 290q1 9 1 19zM158 530q0 -174 126 -301t302 -127q182 0 308 126 t126 307q0 176 -126 301t-302 125q-178 0 -306 -126.5t-128 -304.5zM385 1493l57 119l500 -291l-51 -102z" />
<glyph unicode="&#xe1;" horiz-adv-x="1392" d="M23 532q0 72 15 134.5t28.5 89t46.5 84.5q66 117 192.5 185.5t272.5 68.5q289 0 440 -254v235h313v-127h-178v-821h178v-127h-313v223q-147 -252 -438 -252q-147 0 -274.5 67.5t-196.5 184.5q-86 142 -87 290q1 9 1 19zM158 530q0 -174 126 -301t302 -127q182 0 308 126 t126 307q0 176 -126 301t-302 125q-178 0 -306 -126.5t-128 -304.5zM385 1323l504 285l61 -117l-516 -268z" />
<glyph unicode="&#xe2;" horiz-adv-x="1392" d="M23 532q0 72 15 134.5t28.5 89t46.5 84.5q66 117 192.5 185.5t272.5 68.5q289 0 440 -254v235h313v-127h-178v-821h178v-127h-313v223q-147 -252 -438 -252q-147 0 -274.5 67.5t-196.5 184.5q-86 142 -87 290q1 9 1 19zM158 530q0 -174 126 -301t302 -127q182 0 308 126 t126 307q0 176 -126 301t-302 125q-178 0 -306 -126.5t-128 -304.5zM283 1264l352 282h80l356 -282h-176l-223 168l-219 -168h-170z" />
<glyph unicode="&#xe3;" horiz-adv-x="1392" d="M23 532q0 72 15 134.5t28.5 89t46.5 84.5q66 117 192.5 185.5t272.5 68.5q289 0 440 -254v235h313v-127h-178v-821h178v-127h-313v223q-147 -252 -438 -252q-147 0 -274.5 67.5t-196.5 184.5q-86 142 -87 290q1 9 1 19zM158 530q0 -174 126 -301t302 -127q182 0 308 126 t126 307q0 176 -126 301t-302 125q-178 0 -306 -126.5t-128 -304.5zM346 1432q31 35 81 57t95 22t127 -34q82 -37 129 -37q92 0 146 67l75 -92q-88 -94 -202 -94q-57 0 -135 36t-113 36q-66 0 -123 -62z" />
<glyph unicode="&#xe4;" horiz-adv-x="1392" d="M23 532q0 72 15 134.5t28.5 89t46.5 84.5q66 117 192.5 185.5t272.5 68.5q289 0 440 -254v235h313v-127h-178v-821h178v-127h-313v223q-147 -252 -438 -252q-147 0 -274.5 67.5t-196.5 184.5q-86 142 -87 290q1 9 1 19zM158 530q0 -174 126 -301t302 -127q182 0 308 126 t126 307q0 176 -126 301t-302 125q-178 0 -306 -126.5t-128 -304.5zM469 1284v256h141v-256h-141zM729 1284v256h141v-256h-141z" />
<glyph unicode="&#xe5;" horiz-adv-x="1392" d="M23 532q0 72 15 134.5t28.5 89t46.5 84.5q66 117 192.5 185.5t272.5 68.5q289 0 440 -254v235h313v-127h-178v-821h178v-127h-313v223q-147 -252 -438 -252q-147 0 -274.5 67.5t-196.5 184.5q-86 142 -87 290q1 9 1 19zM158 530q0 -174 126 -301t302 -127q182 0 308 126 t126 307q0 176 -126 301t-302 125q-178 0 -306 -126.5t-128 -304.5zM449 1409q0 90 64.5 152.5t154.5 62.5q88 0 151.5 -64.5t63.5 -152.5q0 -90 -63.5 -153.5t-151.5 -63.5q-92 0 -155.5 63.5t-63.5 155.5zM539 1405q0 -53 37.5 -89t91 -36t89.5 38t36 91t-38 89t-89 36 q-55 0 -91 -38t-36 -91z" />
<glyph unicode="&#xe6;" horiz-adv-x="2164" d="M20 526q0 190 95 314q92 121 211.5 187.5t251.5 66.5q139 0 254.5 -68t181.5 -186v235h135v-250q143 268 446 269q158 0 280 -75t189 -194q80 -143 80 -297v-36h-995q12 -166 138 -277t292 -111q119 0 202 47.5t163 151.5h155l-43 -72q-72 -119 -190.5 -189.5 t-268.5 -70.5q-141 0 -262 70t-186 190v-231h-135v244q-61 -129 -173 -201t-257 -72q-150 0 -280 75t-206 198q-78 126 -78 282zM156 541q0 -178 124.5 -306.5t305.5 -130.5q184 2 306 127t122 310q0 176 -125 296.5t-301 120.5t-304 -121.5t-128 -295.5zM1149 600h860 q-23 154 -145.5 256t-282.5 102q-164 0 -283.5 -99t-148.5 -259z" />
<glyph unicode="&#xe7;" horiz-adv-x="1202" d="M20 526q0 233 158 396q168 172 393 172q223 0 377 -172v153h127v-323h-127q-59 96 -157.5 151t-210.5 55q-178 0 -301 -125.5t-123 -304t126 -300.5t308 -122q117 0 219 61.5t149 168.5h152q-59 -164 -205.5 -263.5t-322.5 -101.5l-50 -153q25 12 54 12q68 0 111.5 -48 t43.5 -118q0 -74 -50 -127t-121.5 -53t-120 42t-58.5 112h94q20 -59 80 -60q37 0 59.5 24.5t22.5 61.5t-24.5 60.5t-61.5 23.5q-49 0 -74 -37l-77 29l79 242q-201 31 -335 186t-134 358z" />
<glyph unicode="&#xe8;" horiz-adv-x="1159" d="M20 526q0 231 161 399.5t392 168.5q240 0 403 -164t163 -402v-41h-983q8 -166 132 -280.5t290 -114.5q119 0 217 54.5t155 154.5h144q-68 -150 -207 -240t-305 -90q-231 0 -396.5 163t-165.5 392zM156 598h856q-23 164 -149 268.5t-292 104.5q-154 0 -275.5 -109.5 t-139.5 -263.5zM303 1493l57 119l500 -291l-51 -102z" />
<glyph unicode="&#xe9;" horiz-adv-x="1159" d="M20 526q0 231 161 399.5t392 168.5q240 0 403 -164t163 -402v-41h-983q8 -166 132 -280.5t290 -114.5q119 0 217 54.5t155 154.5h144q-68 -150 -207 -240t-305 -90q-231 0 -396.5 163t-165.5 392zM156 598h856q-23 164 -149 268.5t-292 104.5q-154 0 -275.5 -109.5 t-139.5 -263.5zM303 1323l504 285l61 -117l-516 -268z" />
<glyph unicode="&#xea;" horiz-adv-x="1159" d="M20 526q0 231 161 399.5t392 168.5q240 0 403 -164t163 -402v-41h-983q8 -166 132 -280.5t290 -114.5q119 0 217 54.5t155 154.5h144q-68 -150 -207 -240t-305 -90q-231 0 -396.5 163t-165.5 392zM156 598h856q-23 164 -149 268.5t-292 104.5q-154 0 -275.5 -109.5 t-139.5 -263.5zM201 1264l352 282h80l356 -282h-176l-223 168l-219 -168h-170z" />
<glyph unicode="&#xeb;" horiz-adv-x="1159" d="M20 526q0 231 161 399.5t392 168.5q240 0 403 -164t163 -402v-41h-983q8 -166 132 -280.5t290 -114.5q119 0 217 54.5t155 154.5h144q-68 -150 -207 -240t-305 -90q-231 0 -396.5 163t-165.5 392zM156 598h856q-23 164 -149 268.5t-292 104.5q-154 0 -275.5 -109.5 t-139.5 -263.5zM387 1284v256h141v-256h-141zM647 1284v256h141v-256h-141z" />
<glyph unicode="&#xec;" horiz-adv-x="589" d="M2 1493l57 119l500 -291l-51 -102zM51 0v127h185v821h-181v127h316v-948h180v-127h-500z" />
<glyph unicode="&#xed;" horiz-adv-x="649" d="M53 1323l504 285l61 -117l-516 -268zM102 0v127h185v821h-181v127h316v-948h180v-127h-500z" />
<glyph unicode="&#xee;" horiz-adv-x="604" d="M-102 1264l352 282h80l356 -282h-176l-223 168l-219 -168h-170zM49 0v127h184v821h-180v127h316v-948h180v-127h-500z" />
<glyph unicode="&#xef;" horiz-adv-x="602" d="M72 0v127h184v821h-180v127h315v-948h180v-127h-499zM106 1284v256h142v-256h-142zM367 1284v256h141v-256h-141z" />
<glyph unicode="&#xf0;" horiz-adv-x="1216" d="M20 530q0 236 166 400t402 164q139 0 270 -107q-100 137 -289 250l-301 -119l-98 76l283 109q-139 70 -228 94l152 65q113 -35 231 -100l260 100l93 -73l-244 -95q82 -57 151.5 -124.5t136 -157.5t104.5 -204t38 -235q0 -258 -163 -430t-400 -172q-233 0 -398.5 164 t-165.5 395zM156 534.5q0 -176.5 124.5 -303.5t303 -127t303.5 126t125 302.5t-124 302.5t-302 126t-304 -125t-126 -301.5z" />
<glyph unicode="&#xf1;" horiz-adv-x="1378" d="M72 0v127h180v821h-180v127h315v-188q49 98 147.5 152.5t213.5 54.5q102 0 211.5 -54.5t158.5 -152.5q59 -119 60 -281v-479h180v-127h-496v127h180v430q0 184 -51 272q-76 131 -280 132q-156 0 -252 -113q-47 -55 -59.5 -116.5t-12.5 -158.5v-446h180v-127h-495z M393 1432q31 35 81 57t95 22t127 -34q82 -37 129 -37q92 0 146 67l76 -92q-88 -94 -203 -94q-57 0 -135 36t-113 36q-66 0 -123 -62z" />
<glyph unicode="&#xf2;" horiz-adv-x="1167" d="M20 530q0 236 166 400t402 164q229 0 394 -163t165 -390q0 -236 -164 -403t-399 -167q-233 0 -398.5 164t-165.5 395zM156 534.5q0 -176.5 125 -303.5t303 -127t303 126t125 302.5t-124 302.5t-302 126t-304 -125t-126 -301.5zM303 1493l57 119l500 -291l-51 -102z" />
<glyph unicode="&#xf3;" horiz-adv-x="1167" d="M20 530q0 236 166 400t402 164q229 0 394 -163t165 -390q0 -236 -164 -403t-399 -167q-233 0 -398.5 164t-165.5 395zM156 534.5q0 -176.5 125 -303.5t303 -127t303 126t125 302.5t-124 302.5t-302 126t-304 -125t-126 -301.5zM303 1323l504 285l61 -117l-516 -268z" />
<glyph unicode="&#xf4;" horiz-adv-x="1167" d="M20 530q0 236 166 400t402 164q229 0 394 -163t165 -390q0 -236 -164 -403t-399 -167q-233 0 -398.5 164t-165.5 395zM156 534.5q0 -176.5 125 -303.5t303 -127t303 126t125 302.5t-124 302.5t-302 126t-304 -125t-126 -301.5zM201 1264l352 282h80l356 -282h-176 l-223 168l-219 -168h-170z" />
<glyph unicode="&#xf5;" horiz-adv-x="1167" d="M20 530q0 236 166 400t402 164q229 0 394 -163t165 -390q0 -236 -164 -403t-399 -167q-233 0 -398.5 164t-165.5 395zM156 534.5q0 -176.5 125 -303.5t303 -127t303 126t125 302.5t-124 302.5t-302 126t-304 -125t-126 -301.5zM264 1432q31 35 81 57t95 22t127 -34 q82 -37 129 -37q92 0 146 67l75 -92q-88 -94 -202 -94q-57 0 -135 36t-113 36q-66 0 -123 -62z" />
<glyph unicode="&#xf6;" horiz-adv-x="1167" d="M20 530q0 236 166 400t402 164q229 0 394 -163t165 -390q0 -236 -164 -403t-399 -167q-233 0 -398.5 164t-165.5 395zM156 534.5q0 -176.5 125 -303.5t303 -127t303 126t125 302.5t-124 302.5t-302 126t-304 -125t-126 -301.5zM387 1284v256h141v-256h-141zM647 1284v256 h141v-256h-141z" />
<glyph unicode="&#xf7;" horiz-adv-x="1269" d="M119 670v125h1032v-125h-1032zM571 287v223h127v-223h-127zM571 954v224h127v-224h-127z" />
<glyph unicode="&#xf8;" horiz-adv-x="1173" d="M20 530q0 238 166 401t404 163q156 0 289 -76l114 160l84 -64l-114 -158q190 -176 190 -411q0 -242 -164 -408t-405 -166q-147 0 -285 76l-113 -158l-84 64l113 156q-195 169 -195 421zM156 543q0 -182 145 -322l496 686q-106 57 -215 58q-174 0 -300 -124t-126 -298z M385 156q106 -49 205 -50q182 0 305 125t123 306q0 172 -139 307z" />
<glyph unicode="&#xf9;" horiz-adv-x="1329" d="M20 948v127h316v-579q0 -63 3 -101.5t18.5 -89.5t45.5 -92q88 -116 230 -116q14 0 29 1q154 12 241 117q51 59 64.5 118.5t13.5 158.5v456h-180v127h315v-948h182v-127h-317v180q-51 -98 -147.5 -153.5t-210.5 -55.5q-113 0 -213.5 61.5t-153.5 147.5q-55 90 -55 264v504 h-181zM373 1493l57 119l500 -291l-51 -102z" />
<glyph unicode="&#xfa;" horiz-adv-x="1329" d="M20 948v127h316v-579q0 -63 3 -101.5t18.5 -89.5t45.5 -92q88 -116 230 -116q14 0 29 1q154 12 241 117q51 59 64.5 118.5t13.5 158.5v456h-180v127h315v-948h182v-127h-317v180q-51 -98 -147.5 -153.5t-210.5 -55.5q-113 0 -213.5 61.5t-153.5 147.5q-55 90 -55 264v504 h-181zM373 1323l504 285l61 -117l-516 -268z" />
<glyph unicode="&#xfb;" horiz-adv-x="1329" d="M20 948v127h316v-579q0 -63 3 -101.5t18.5 -89.5t45.5 -92q88 -116 230 -116q14 0 29 1q154 12 241 117q51 59 64.5 118.5t13.5 158.5v456h-180v127h315v-948h182v-127h-317v180q-51 -98 -147.5 -153.5t-210.5 -55.5q-113 0 -213.5 61.5t-153.5 147.5q-55 90 -55 264v504 h-181zM270 1264l353 282h79l357 -282h-176l-224 168l-219 -168h-170z" />
<glyph unicode="&#xfc;" horiz-adv-x="1329" d="M20 948v127h316v-579q0 -63 3 -101.5t18.5 -89.5t45.5 -92q88 -116 230 -116q14 0 29 1q154 12 241 117q51 59 64.5 118.5t13.5 158.5v456h-180v127h315v-948h182v-127h-317v180q-51 -98 -147.5 -153.5t-210.5 -55.5q-113 0 -213.5 61.5t-153.5 147.5q-55 90 -55 264v504 h-181zM457 1284v256h141v-256h-141zM717 1284v256h141v-256h-141z" />
<glyph unicode="&#xfd;" horiz-adv-x="1286" d="M10 948v127h492v-127h-170l303 -786l321 786h-168v127h488v-127h-172l-512 -1220h176v-127h-498v127h181l110 264l-379 956h-172zM367 1323l503 285l62 -117l-516 -268z" />
<glyph unicode="&#xfe;" horiz-adv-x="1372" d="M41 -272h180v1607h-180v127h315v-626h4q139 258 441 258q231 0 391 -164t160 -397.5t-161 -397.5t-390 -164q-139 0 -260 69t-181 187h-4v-499h181v-127h-496v127zM354 535q0 -180 126 -308.5t304 -128.5q176 0 304.5 128t128.5 306q0 195 -126 320q-116 115 -273 115 h-25q-184 -10 -311.5 -126t-127.5 -306z" />
<glyph unicode="&#xff;" horiz-adv-x="1286" d="M10 948v127h492v-127h-170l303 -786l321 786h-168v127h488v-127h-172l-512 -1220h176v-127h-498v127h181l110 264l-379 956h-172zM451 1284v256h141v-256h-141zM711 1284v256h141v-256h-141z" />
<glyph unicode="&#x152;" horiz-adv-x="2314" d="M0 748q0 205 84 354q100 180 277.5 289.5t390.5 109.5q209 0 374.5 -104.5t245.5 -294.5v360h840v-372h-148v237h-544v-528h534v-121h-534v-543h544v242h146v-377h-838v379q-84 -188 -251 -298t-371 -110q-197 0 -386.5 112t-283.5 296q-80 156 -80 369zM147 743 q0 -258 176.5 -441t432.5 -183q254 0 429 184t175 440q0 252 -174 430q-174 180 -428 181q-256 0 -434 -178q-177 -177 -177 -433z" />
<glyph unicode="&#x153;" horiz-adv-x="2168" d="M20 532q0 236 167 399t405 163q160 0 297 -87t198 -233q61 150 196.5 235t303.5 85q227 0 394 -164t167 -389v-49h-991q8 -164 131 -276t289 -112q115 0 213 53.5t160 149.5h153q-61 -152 -205.5 -244t-314.5 -92q-164 0 -298 82t-198 228q-66 -143 -202.5 -226.5 t-298.5 -83.5q-233 0 -399.5 165t-166.5 396zM147 528q0 -176 128 -301t307 -125q182 0 309 127t127 308q0 178 -128 303t-306 125q-182 0 -309.5 -128.5t-127.5 -308.5zM1159 602h844q-29 156 -145.5 259.5t-274.5 103.5q-162 0 -281.5 -103.5t-142.5 -259.5z" />
<glyph unicode="&#x178;" horiz-adv-x="1359" d="M0 1327v135h510v-135h-180l362 -696l344 696h-188v135h512v-135h-174l-420 -835v-357h186v-135h-522v135h188v357l-444 835h-174zM481 1671v256h142v-256h-142zM741 1671v256h142v-256h-142z" />
<glyph unicode="&#x2c6;" horiz-adv-x="1153" d="M182 1264l353 282h79l357 -282h-176l-224 168l-219 -168h-170z" />
<glyph unicode="&#x2dc;" horiz-adv-x="1083" d="M211 1432q31 35 81 57t95 22t127 -34q82 -37 129 -37q92 0 145 67l76 -92q-88 -94 -202 -94q-57 0 -135 36t-113 36q-66 0 -123 -62z" />
<glyph unicode="&#x2013;" horiz-adv-x="1228" d="M90 467v135h1049v-135h-1049z" />
<glyph unicode="&#x2014;" horiz-adv-x="2252" d="M90 467v135h2073v-135h-2073z" />
<glyph unicode="&#x2018;" horiz-adv-x="362" d="M41 1462h129l152 -375h-129z" />
<glyph unicode="&#x2019;" horiz-adv-x="362" d="M41 1087l152 375h129l-152 -375h-129z" />
<glyph unicode="&#x201a;" horiz-adv-x="444" d="M82 -199l151 377h129l-151 -377h-129z" />
<glyph unicode="&#x201c;" horiz-adv-x="626" d="M41 1462h129l152 -375h-129zM303 1462h131l152 -375h-129z" />
<glyph unicode="&#x201d;" horiz-adv-x="628" d="M41 1087l152 375h129l-152 -375h-129zM305 1087l154 375h129l-154 -375h-129z" />
<glyph unicode="&#x201e;" horiz-adv-x="708" d="M82 -199l151 377h129l-151 -377h-129zM344 -199l154 377h129l-152 -377h-131z" />
<glyph unicode="&#x2022;" horiz-adv-x="831" d="M90 367v731h651v-731h-651z" />
<glyph unicode="&#x2026;" horiz-adv-x="2148" d="M322 0v223h141v-223h-141zM1004 0v223h141v-223h-141zM1686 0v223h141v-223h-141z" />
<glyph unicode="&#x2039;" horiz-adv-x="538" d="M125 494v81l235 351l31 -115l-174 -281l174 -278l-31 -111z" />
<glyph unicode="&#x203a;" horiz-adv-x="540" d="M147 252l175 278l-175 281l29 115l238 -351v-81l-238 -353z" />
<glyph unicode="&#x20ac;" horiz-adv-x="1280" d="M74 594v92h151q-2 20 -2 57q0 45 2 68h-151v90h159q29 219 125 371q145 229 404 229q229 0 340 -211v172h104v-356h-137q-92 272 -307 272q-190 0 -297 -188q-66 -113 -88 -289h538v-90h-546q-2 -23 -2 -68q0 -39 2 -57h546v-92h-540q20 -186 88 -311q106 -188 305 -189 q123 0 211 73t113 216h131q-29 -201 -148 -306.5t-311 -105.5q-266 0 -410 234q-98 164 -123 389h-157z" />
<glyph unicode="&#x2122;" horiz-adv-x="1894" d="M59 1346v116h676v-116h-264v-717h-145v717h-267zM883 629v833h213l237 -588l250 588h209v-833h-129v717l-289 -717h-78l-282 717v-717h-131z" />
<glyph unicode="&#xe000;" horiz-adv-x="1075" d="M0 1075h1075v-1075h-1075v1075z" />
<glyph unicode="&#xfb01;" horiz-adv-x="1064" d="M72 0v127h180v825h-180v131h180v19q2 80 6 119t27.5 93t70.5 95q88 82 258 92v-121q-92 -6 -149 -51q-35 -27 -52.5 -65.5t-19.5 -66.5t-4 -85v-29h465v-956h180v-127h-962zM387 127h332v825h-332v-825zM719 1251v211h135v-211h-135z" />
<glyph unicode="&#xfb02;" horiz-adv-x="1062" d="M72 0v127h180v825h-180v131h180v19q2 84 7 124t30.5 95t77.5 96q100 84 272 84h213v-1374h180v-127h-960zM387 952v-825h330v1253h-51q-131 0 -201 -51q-37 -29 -54.5 -69.5t-19.5 -67.5t-4 -90v-19h184v-131h-184z" />
<glyph unicode="&#xfb03;" horiz-adv-x="1892" d="M72 0v127h182v825h-182v131h180v17q2 80 6 118.5t27.5 94t70.5 96.5q88 82 258 92v-121q-92 -6 -149 -53q-35 -27 -52.5 -65.5t-19.5 -66.5t-4 -85v-27h184v-131h-184v-825h184v-127h-501zM717 0v127h182v825h-182v131h180v17q2 80 6 118.5t27.5 94t70.5 96.5 q88 82 259 92v-121q-92 -6 -150 -53q-35 -27 -52.5 -65.5t-19.5 -66.5t-4 -85v-27h185v-131h-185v-825h185v-127h-502zM1362 0v127h184v821h-180v127h315v-948h181v-127h-500zM1546 1251v211h135v-211h-135z" />
<glyph unicode="&#xfb04;" horiz-adv-x="1878" d="M72 0v127h182v825h-182v131h180v17q2 80 6 118.5t27.5 94t70.5 96.5q88 82 258 92v-121q-92 -6 -149 -53q-35 -27 -52.5 -65.5t-19.5 -66.5t-4 -85v-27h184v-131h-184v-825h184v-127h-501zM717 0v127h182v825h-182v131h180v17q2 80 6 118.5t27.5 94t70.5 96.5 q88 82 259 92v-121q-92 -6 -150 -53q-35 -27 -52.5 -65.5t-19.5 -66.5t-4 -85v-27h185v-131h-185v-825h185v-127h-502zM1341 0v127h193v1208h-180v127h315v-1335h178v-127h-506z" />
</font>
</defs>
</svg>
